Вы используете незарегистрированную версию компонента "Вкладки"!

Поиск

(Contemporary Jazz, Post-Bop) [CD] Geri Allen - Maroons - 1992, FLAC (tracks+.cue), lossless

(Contemporary Jazz, Post-Bop) [CD] Geri Allen - Maroons - 1992, FLAC (tracks+.cue), lossless
Треклист:
Geri Allen - Maroons

Жанр: Contemporary Jazz, Post-Bop
Носитель: CD
Год издания: 1992
Издатель (лейбл): Blue Note ‎
Номер по каталогу: CDP 0777 7 99493 2 8
Страна исполнителя (группы): USA
Аудиокодек: FLAC (*.flac)
Тип рипа: tracks+.cue
Битрейт аудио: lossless
Продолжительность: 01:12:18
Источник (релизер): www
Наличие сканов в содержимом раздачи: нет

Piano – Geri Allen
Trumpet – Marcus Belgrave
Bass – Dwayne Dolphin
Drums – Tani Tabbal
Trumpet – Wallace Roney
Drums – Pheeroan AkLaff
Bass – Anthony Cox

01. Feed The Fire 1 [01:32]
02. No More Mr. Nice Guy [07:06]
03. And They Partied [05:32]
04. Number Four [04:38]
05. A Prayer For Peace [05:45]
06. Mad Money [07:39]
07. Two Brothers [02:49]
08. Feed The Fire II [03:29]
09. Dolphy's Dance [05:01]
10. For John Malachi [04:10]
11. Laila's House [08:21]
12. Feed The Fire III [03:19]
13. Brooklyn Bound 'A' [01:05]
14. Bed-Sty [05:21]
15. Maroons [06:25]

 
Лог создания рипа
Exact Audio Copy V1.3 from 2. September 2016
EAC extraction logfile from 3. March 2017, 21:43
Geri Allen / Maroons
Used drive : PIONEER BD-RW BDR-207D Adapter: 1 ID: 0
Read mode : Secure
Utilize accurate stream : Yes
Defeat audio cache : Yes
Make use of C2 pointers : No
Read offset correction : 667
Overread into Lead-In and Lead-Out : No
Fill up missing offset samples with silence : Yes
Delete leading and trailing silent blocks : No
Null samples used in CRC calculations : Yes
Used interface : Native Win32 interface for Win NT & 2000
Gap handling : Appended to previous track
Used output format : User Defined Encoder
Selected bitrate : 1024 kBit/s
Quality : High
Add ID3 tag : No
Command line compressor : Z:\Program Files\EAC\Flac\flac.exe
Additional command line options : -8 -e -p -V -T "ARTIST=%artist%" -T "TITLE=%title%" -T "ALBUM=%albumtitle%" -T "DATE=%year%" -T "TRACKNUMBER=%tracknr%" -T "GENRE=%genre%" -T "PERFORMER=%albuminterpret%" -T "COMPOSER=%composer%" %haslyrics%--tag-from-file=LYRICS="%lyricsfile%"%haslyrics% -T "ALBUMARTIST=%albumartist%" -T "DISCNUMBER=%cdnumber%" -T "TOTALDISCS=%totalcds%" -T "TOTALTRACKS=%numtracks%" -T "COMMENT=%comment%" %source% -o %dest%
TOC of the extracted CD
Track | Start | Length | Start sector | End sector
---------------------------------------------------------
1 | 0:00.32 | 1:32.65 | 32 | 6996
2 | 1:33.22 | 7:06.08 | 6997 | 38954
3 | 8:39.30 | 5:32.37 | 38955 | 63891
4 | 14:11.67 | 4:38.15 | 63892 | 84756
5 | 18:50.07 | 5:45.05 | 84757 | 110636
6 | 24:35.12 | 7:39.73 | 110637 | 145134
7 | 32:15.10 | 2:49.47 | 145135 | 157856
8 | 35:04.57 | 3:29.33 | 157857 | 173564
9 | 38:34.15 | 5:01.57 | 173565 | 196196
10 | 43:35.72 | 4:10.18 | 196197 | 214964
11 | 47:46.15 | 8:21.60 | 214965 | 252599
12 | 56:08.00 | 3:19.05 | 252600 | 267529
13 | 59:27.05 | 1:05.05 | 267530 | 272409
14 | 60:32.10 | 5:21.20 | 272410 | 296504
15 | 65:53.30 | 6:25.65 | 296505 | 325444
Track 1
Filename C:\___\Geri Allen - Maroons (1992)\01 Feed The Fire 1.wav
Pre-gap length 0:00:02.42
Peak level 96.7 %
Extraction speed 3.8 X
Track quality 100.0 %
Test CRC 48C1EB61
Copy CRC 48C1EB61
Accurately ripped (confidence 19) [E4D5BCEA] (AR v2)
Copy OK
Track 2
Filename C:\___\Geri Allen - Maroons (1992)\02 No More Mr. Nice Guy.wav
Peak level 72.9 %
Extraction speed 5.3 X
Track quality 100.0 %
Test CRC D772BA62
Copy CRC D772BA62
Accurately ripped (confidence 19) [271262EF] (AR v2)
Copy OK
Track 3
Filename C:\___\Geri Allen - Maroons (1992)\03 And They Partied.wav
Pre-gap length 0:00:00.50
Peak level 93.8 %
Extraction speed 5.2 X
Track quality 99.9 %
Test CRC E44B9FEC
Copy CRC E44B9FEC
Accurately ripped (confidence 19) [248528FF] (AR v2)
Copy OK
Track 4
Filename C:\___\Geri Allen - Maroons (1992)\04 Number Four.wav
Pre-gap length 0:00:03.16
Peak level 62.1 %
Extraction speed 3.5 X
Track quality 99.9 %
Test CRC EAA2FC0C
Copy CRC EAA2FC0C
Accurately ripped (confidence 19) [0E77094B] (AR v2)
Copy OK
Track 5
Filename C:\___\Geri Allen - Maroons (1992)\05 A Prayer For Peace.wav
Pre-gap length 0:00:02.56
Peak level 83.1 %
Extraction speed 1.0 X
Track quality 100.0 %
Test CRC 8575A46D
Copy CRC 8575A46D
Accurately ripped (confidence 19) [2BFC2CA8] (AR v2)
Copy OK
Track 6
Filename C:\___\Geri Allen - Maroons (1992)\06 Mad Money.wav
Pre-gap length 0:00:01.86
Peak level 97.0 %
Extraction speed 1.1 X
Track quality 100.0 %
Test CRC 3CC6A5FF
Copy CRC 3CC6A5FF
Accurately ripped (confidence 18) [526BA99C] (AR v2)
Copy OK
Track 7
Filename C:\___\Geri Allen - Maroons (1992)\07 Two Brothers.wav
Pre-gap length 0:00:00.26
Peak level 64.9 %
Extraction speed 0.8 X
Track quality 99.9 %
Test CRC AF4E0A6B
Copy CRC AF4E0A6B
Accurately ripped (confidence 19) [BADF3D19] (AR v2)
Copy OK
Track 8
Filename C:\___\Geri Allen - Maroons (1992)\08 Feed The Fire II.wav
Pre-gap length 0:00:00.06
Peak level 90.2 %
Extraction speed 1.0 X
Track quality 100.0 %
Test CRC E46580D8
Copy CRC E46580D8
Accurately ripped (confidence 19) [28C68E9F] (AR v2)
Copy OK
Track 9
Filename C:\___\Geri Allen - Maroons (1992)\09 Dolphy's Dance.wav
Peak level 88.7 %
Extraction speed 0.9 X
Track quality 99.9 %
Test CRC 98DD4C02
Copy CRC 98DD4C02
Accurately ripped (confidence 19) [10AC4472] (AR v2)
Copy OK
Track 10
Filename C:\___\Geri Allen - Maroons (1992)\10 For John Malachi.wav
Pre-gap length 0:00:00.76
Peak level 51.9 %
Extraction speed 1.0 X
Track quality 100.0 %
Test CRC 8A301864
Copy CRC 8A301864
Accurately ripped (confidence 19) [9F678662] (AR v2)
Copy OK
Track 11
Filename C:\___\Geri Allen - Maroons (1992)\11 Laila's House.wav
Pre-gap length 0:00:01.13
Peak level 81.7 %
Extraction speed 1.0 X
Track quality 100.0 %
Test CRC 05015415
Copy CRC 05015415
Accurately ripped (confidence 19) [98661497] (AR v2)
Copy OK
Track 12
Filename C:\___\Geri Allen - Maroons (1992)\12 Feed The Fire III.wav
Pre-gap length 0:00:00.50
Peak level 99.5 %
Extraction speed 0.9 X
Track quality 100.0 %
Test CRC 1C5F1290
Copy CRC 1C5F1290
Accurately ripped (confidence 19) [D7CB2549] (AR v2)
Copy OK
Track 13
Filename C:\___\Geri Allen - Maroons (1992)\13 Brooklyn Bound ''A''.wav
Pre-gap length 0:00:03.00
Peak level 53.2 %
Extraction speed 0.5 X
Track quality 99.8 %
Test CRC B40D2AC8
Copy CRC B40D2AC8
Accurately ripped (confidence 19) [233591F2] (AR v2)
Copy OK
Track 14
Filename C:\___\Geri Allen - Maroons (1992)\14 Bed-Sty.wav
Peak level 94.5 %
Extraction speed 1.0 X
Track quality 100.0 %
Test CRC FACA489E
Copy CRC FACA489E
Accurately ripped (confidence 19) [1C6D5CA6] (AR v2)
Copy OK
Track 15
Filename C:\___\Geri Allen - Maroons (1992)\15 Maroons.wav
Pre-gap length 0:00:01.57
Peak level 63.1 %
Extraction speed 1.0 X
Track quality 100.0 %
Test CRC 17E5FF5C
Copy CRC 17E5FF5C
Accurately ripped (confidence 18) [35A4288C] (AR v2)
Copy OK
All tracks accurately ripped
No errors occurred
End of status report
---- CUETools DB Plugin V2.1.6
[CTDB TOCID: XyyZ4o4aXJvWLv_FBoFGKnxhrDg-] found
Submit result: XyyZ4o4aXJvWLv_FBoFGKnxhrDg- has been confirmed
Track | CTDB Status
1 | (5/5) Accurately ripped
2 | (5/5) Accurately ripped
3 | (5/5) Accurately ripped
4 | (5/5) Accurately ripped
5 | (5/5) Accurately ripped
6 | (5/5) Accurately ripped
7 | (5/5) Accurately ripped
8 | (5/5) Accurately ripped
9 | (5/5) Accurately ripped
10 | (5/5) Accurately ripped
11 | (5/5) Accurately ripped
12 | (5/5) Accurately ripped
13 | (5/5) Accurately ripped
14 | (5/5) Accurately ripped
15 | (5/5) Accurately ripped
==== Log checksum 5BDD8C6A38A115824F993D51C8072DDD3D8B83F24971F3C0DB5E0764BBAC3761 ====
 
Содержание индексной карты (.CUE)
REM GENRE Jazz
REM DATE 1992
REM DISCID DD10F30F
REM COMMENT "ExactAudioCopy v1.3"
CATALOG 0000000000000
PERFORMER "Geri Allen"
TITLE "Maroons"
REM COMPOSER ""
FILE "01 Feed The Fire 1.wav" WAVE
TRACK 01 AUDIO
TITLE "Feed The Fire 1"
PERFORMER "Geri Allen"
REM COMPOSER ""
PREGAP 00:00:32
INDEX 01 00:00:00
FILE "02 No More Mr. Nice Guy.wav" WAVE
TRACK 02 AUDIO
TITLE "No More Mr. Nice Guy"
PERFORMER "Geri Allen"
REM COMPOSER ""
INDEX 01 00:00:00
TRACK 03 AUDIO
TITLE "And They Partied"
PERFORMER "Geri Allen"
REM COMPOSER ""
INDEX 00 07:05:45
FILE "03 And They Partied.wav" WAVE
INDEX 01 00:00:00
TRACK 04 AUDIO
TITLE "Number Four"
PERFORMER "Geri Allen"
REM COMPOSER ""
INDEX 00 05:29:25
FILE "04 Number Four.wav" WAVE
INDEX 01 00:00:00
TRACK 05 AUDIO
TITLE "A Prayer For Peace"
PERFORMER "Geri Allen"
REM COMPOSER ""
INDEX 00 04:35:48
FILE "05 A Prayer For Peace.wav" WAVE
INDEX 01 00:00:00
TRACK 06 AUDIO
TITLE "Mad Money"
PERFORMER "Geri Allen"
REM COMPOSER ""
INDEX 00 05:43:15
FILE "06 Mad Money.wav" WAVE
INDEX 01 00:00:00
TRACK 07 AUDIO
TITLE "Two Brothers"
PERFORMER "Geri Allen"
REM COMPOSER ""
INDEX 00 07:39:53
FILE "07 Two Brothers.wav" WAVE
INDEX 01 00:00:00
TRACK 08 AUDIO
TITLE "Feed The Fire II"
PERFORMER "Geri Allen"
REM COMPOSER ""
INDEX 00 02:49:42
FILE "08 Feed The Fire II.wav" WAVE
INDEX 01 00:00:00
FILE "09 Dolphy's Dance.wav" WAVE
TRACK 09 AUDIO
TITLE "Dolphy's Dance"
PERFORMER "Geri Allen"
REM COMPOSER ""
INDEX 01 00:00:00
TRACK 10 AUDIO
TITLE "For John Malachi"
PERFORMER "Geri Allen"
REM COMPOSER ""
INDEX 00 05:01:00
FILE "10 For John Malachi.wav" WAVE
INDEX 01 00:00:00
TRACK 11 AUDIO
TITLE "Laila's House"
PERFORMER "Geri Allen"
REM COMPOSER ""
INDEX 00 04:09:08
FILE "11 Laila's House.wav" WAVE
INDEX 01 00:00:00
TRACK 12 AUDIO
TITLE "Feed The Fire III"
PERFORMER "Geri Allen"
REM COMPOSER ""
INDEX 00 08:21:22
FILE "12 Feed The Fire III.wav" WAVE
INDEX 01 00:00:00
TRACK 13 AUDIO
TITLE "Brooklyn Bound 'A'"
PERFORMER "Geri Allen"
REM COMPOSER ""
INDEX 00 03:16:05
FILE "13 Brooklyn Bound ''A''.wav" WAVE
INDEX 01 00:00:00
FILE "14 Bed-Sty.wav" WAVE
TRACK 14 AUDIO
TITLE "Bed-Sty"
PERFORMER "Geri Allen"
REM COMPOSER ""
INDEX 01 00:00:00
TRACK 15 AUDIO
TITLE "Maroons"
PERFORMER "Geri Allen"
REM COMPOSER ""
INDEX 00 05:19:52
FILE "15 Maroons.wav" WAVE
INDEX 01 00:00:00
Any questions - support@pro-jazz.com.
Есть вопросы - support@pro-jazz.com
07:49
230
Нет комментариев. Ваш будет первым!