Вы используете незарегистрированную версию компонента "Вкладки"!

Поиск

(Contemporary Jazz, Avant-Garde) [CD] Jeremy Wilms (feat. Tomas Fujiwara, Matt Hilgenberg, Danton Boller a.o.) - Diamond People - 2014, FLAC (tracks+.cue), lossless

(Contemporary Jazz, Avant-Garde) [CD] Jeremy Wilms (feat. Tomas Fujiwara, Matt Hilgenberg, Danton Boller a.o.) - Diamond People - 2014, FLAC (tracks+.cue), lossless
Треклист:
J E R E M Y W I L M S
D I A M O N D P E O P L E
Жанр: Contemporary Jazz, Avant-Garde
Страна-производитель диска: USA
Год издания: 2014
Издатель (лейбл): Self Production
Аудиокодек: FLAC (*.flac)
Тип рипа: tracks+.cue
Битрейт аудио: lossless
Продолжительность: 51:03
Источник (релизер): спасибо Nostalgiastic
Наличие сканов в содержимом раздачи: нет
Треклист:
1. Disjunct
2. Clone Village
3. Answers
4. Blues for Kinah
5. Broken Things
6. Retraction
7. Alphaville
8. Hymn
 
Лог создания рипа
Exact Audio Copy V1.0 beta 3 from 29. August 2011
EAC extraction logfile from 12. May 2014, 19:00
Jeremy Wilms / Diamond People
Used drive : hp BD ROM BC-5550H Adapter: 1 ID: 0
Read mode : Secure
Utilize accurate stream : Yes
Defeat audio cache : Yes
Make use of C2 pointers : No
Read offset correction : 48
Overread into Lead-In and Lead-Out : No
Fill up missing offset samples with silence : Yes
Delete leading and trailing silent blocks : No
Null samples used in CRC calculations : Yes
Used interface : Native Win32 interface for Win NT & 2000
Gap handling : Appended to previous track
Used output format : User Defined Encoder
Selected bitrate : 1024 kBit/s
Quality : High
Add ID3 tag : No
Command line compressor : C:\Program Files (x86)\Exact Audio Copy\FLAC\FLAC.EXE
Additional command line options : -8 -V -T "ARTIST=%artist%" -T "TITLE=%title%" -T "ALBUM=%albumtitle%" -T "DATE=%year%" -T "TRACKNUMBER=%tracknr%" -T "GENRE=%genre%" -T "COMMENT=%comment%" -T "BAND=%albuminterpret%" -T "ALBUMARTIST=%albuminterpret%" -T "COMPOSER=%composer%" %haslyrics%--tag-from-file=LYRICS="%lyricsfile%"%haslyrics% -T "DISCNUMBER=%cdnumber%" -T "TOTALDISCS=%totalcds%" -T "TOTALTRACKS=%numtracks%" %hascover%--picture="%coverfile%"%hascover% %source% -o %dest%
TOC of the extracted CD
Track | Start | Length | Start sector | End sector
---------------------------------------------------------
1 | 0:00.00 | 5:02.29 | 0 | 22678
2 | 5:02.29 | 6:26.37 | 22679 | 51665
3 | 11:28.66 | 10:05.69 | 51666 | 97109
4 | 21:34.60 | 7:18.01 | 97110 | 129960
5 | 28:52.61 | 3:01.41 | 129961 | 143576
6 | 31:54.27 | 5:50.10 | 143577 | 169836
7 | 37:44.37 | 9:52.56 | 169837 | 214292
8 | 47:37.18 | 3:26.49 | 214293 | 229791
Track 1
Filename C:\EAC Music and Logs\Jeremy Wilms - Diamond People (2014) -FLAC\01 - Disjunct.wav
Pre-gap length 0:00:02.00
Peak level 87.9 %
Extraction speed 11.1 X
Track quality 100.0 %
Test CRC 25D608A9
Copy CRC 25D608A9
Track not present in AccurateRip database
Copy OK
Track 2
Filename C:\EAC Music and Logs\Jeremy Wilms - Diamond People (2014) -FLAC\02 - Clone Village.wav
Peak level 87.5 %
Extraction speed 12.5 X
Track quality 100.0 %
Test CRC 56E7883E
Copy CRC 56E7883E
Track not present in AccurateRip database
Copy OK
Track 3
Filename C:\EAC Music and Logs\Jeremy Wilms - Diamond People (2014) -FLAC\03 - Answers.wav
Peak level 75.9 %
Extraction speed 14.2 X
Track quality 100.0 %
Test CRC 71F7A678
Copy CRC 71F7A678
Track not present in AccurateRip database
Copy OK
Track 4
Filename C:\EAC Music and Logs\Jeremy Wilms - Diamond People (2014) -FLAC\04 - Blues for Kinah.wav
Peak level 98.8 %
Extraction speed 15.6 X
Track quality 100.0 %
Test CRC 8ECE432F
Copy CRC 8ECE432F
Track not present in AccurateRip database
Copy OK
Track 5
Filename C:\EAC Music and Logs\Jeremy Wilms - Diamond People (2014) -FLAC\05 - Broken Things.wav
Peak level 34.5 %
Extraction speed 15.4 X
Track quality 100.0 %
Test CRC 75D149AB
Copy CRC 75D149AB
Track not present in AccurateRip database
Copy OK
Track 6
Filename C:\EAC Music and Logs\Jeremy Wilms - Diamond People (2014) -FLAC\06 - Retraction.wav
Peak level 98.8 %
Extraction speed 16.7 X
Track quality 100.0 %
Test CRC A423036B
Copy CRC A423036B
Track not present in AccurateRip database
Copy OK
Track 7
Filename C:\EAC Music and Logs\Jeremy Wilms - Diamond People (2014) -FLAC\07 - Alphaville.wav
Peak level 54.3 %
Extraction speed 18.2 X
Track quality 100.0 %
Test CRC 2084E1E3
Copy CRC 2084E1E3
Track not present in AccurateRip database
Copy OK
Track 8
Filename C:\EAC Music and Logs\Jeremy Wilms - Diamond People (2014) -FLAC\08 - Hymn.wav
Peak level 98.8 %
Extraction speed 18.1 X
Track quality 100.0 %
Test CRC 535B924F
Copy CRC 535B924F
Track not present in AccurateRip database
Copy OK
None of the tracks are present in the AccurateRip database
No errors occurred
End of status report
==== Log checksum 8D27AB52FCAD88A77CB42FE41120A2D3CA48A96F272AD8260DE5A241C8EBFD8A ====
 
Содержание индексной карты (.CUE)
REM GENRE Jazz
REM DATE 2014
REM DISCID 720BF708
REM COMMENT "ExactAudioCopy v1.0b3"
PERFORMER "Jeremy Wilms"
TITLE "Diamond People"
FILE "01 - Disjunct.wav" WAVE
TRACK 01 AUDIO
TITLE "Disjunct"
PERFORMER "Jeremy Wilms"
ISRC USHM91392517
INDEX 01 00:00:00
FILE "02 - Clone Village.wav" WAVE
TRACK 02 AUDIO
TITLE "Clone Village"
PERFORMER "Jeremy Wilms"
INDEX 01 00:00:00
FILE "03 - Answers.wav" WAVE
TRACK 03 AUDIO
TITLE "Answers"
PERFORMER "Jeremy Wilms"
INDEX 01 00:00:00
FILE "04 - Blues for Kinah.wav" WAVE
TRACK 04 AUDIO
TITLE "Blues for Kinah"
PERFORMER "Jeremy Wilms"
INDEX 01 00:00:00
FILE "05 - Broken Things.wav" WAVE
TRACK 05 AUDIO
TITLE "Broken Things"
PERFORMER "Jeremy Wilms"
INDEX 01 00:00:00
FILE "06 - Retraction.wav" WAVE
TRACK 06 AUDIO
TITLE "Retraction"
PERFORMER "Jeremy Wilms"
INDEX 01 00:00:00
FILE "07 - Alphaville.wav" WAVE
TRACK 07 AUDIO
TITLE "Alphaville"
PERFORMER "Jeremy Wilms"
INDEX 01 00:00:00
FILE "08 - Hymn.wav" WAVE
TRACK 08 AUDIO
TITLE "Hymn"
PERFORMER "Jeremy Wilms"
INDEX 01 00:00:00
 
Об альбоме
We occupy an interesting in point in the history of music. The idea of music as an art form has been subverted and fractured to a place of absurdity. Advertising parades as an art form and pop musicians musical output is nothing more than another thing to billboard-ize to sell the brand of themselves (or hair care products or clothes or their "reality" tv show). Real art music goes unheard or neglected due to its conscription to ivory tower-ism and/or marginalized fringe support. And then there is "jazz", or "Jazz" if you prefer. Standing there in a suit in the corner taking skill and discipline to learn, command of instruments and chord theory and improvisation, and unfortunately becoming a paint by numbers exercise boring the hell out of most people with pulses.
What inspires one to ignore these sad truths and make a recording of living breathing people in a room at one time searching for sounds and structures that haven't been explored? That would be the impulse of art, true creation.
Not that this music is not in a lineage. But it is a lineage of individuality that is being sought out.
Eric Dolphy, Herbie Nichols, Chico Hamilton, these are the predecessors of the music contained on this album. And if you must have a guitar reference, Sonny Sharrock and Hendrix smashed together with Thurston Moore in between Grant Green and Gabor Szabo. If you must.
But it may be Chico Hamilton's influence that is paramount. The first new guitarist Chico used in 20 years after Cary DeNegris, Wilms spent a year and a half going to Chico's penthouse apartment and absorbing lessons on comping, arranging, and just generally being a bad mother@&$?er. Those lessons came in handy in the assembling of this set of music.
But Wilms is not a jazz scene type of guy. Not at all. His next gig was paying bass, guitar and keyboards in the Broadway production of Fela! about the life of Nigerian music rebel Fela Kuti. Any other Broadway gig would not be his cup of tea but studying and immersing himself in Fela's music was huge. Blocking out all the BS that comes with theater politics, the years of this show were spent studying Fela's completely unique music form. Which brings us back to the point, individuality.
I could go on about gigs with rock band TV on the Radio, hip hop's El-P, Sonic Youth side projects, what have you. The bottom line is it is about creativity and the individual, as you will get when you sink into this recording.
Enjoy.
(Album Notes)
 
Состав
Jeremy Wilms - guitar, composer
Tomas Fujiwara - drums
Greg Gonzalez - drums
Danton Boller - bass
Cochemea Gastelum - saxophone, flute
Matt Hilgenberg - trumpet
Steve Blanco - keyboards
Reinaldo De Jesus - percussion
Dylan Fusillo - percussion
По всем вопросам пишите личное сообщение пользователю M0p94ok.
01:59
184
Нет комментариев. Ваш будет первым!