Поиск

(Avant-Garde, Free Jazz) [CDR] Paul Hartsaw Tentet (Josh Berman, Jeb Bishop, Keefe Jackson, Dave Rempis, Frank Rosaly, Anton Hatwich a. o.) - Chicago 2004 - 2004, FLAC (tracks+.cue), lossless

(Avant-Garde, Free Jazz) [CDR] Paul Hartsaw Tentet (Josh Berman, Jeb Bishop, Keefe Jackson, Dave Rempis, Frank Rosaly, Anton Hatwich a. o.) - Chicago 2004 - 2004, FLAC (tracks+.cue), lossless
Треклист:
Paul Hartsaw Tentet / Chicago 2004
Жанр: Avant-Garde, Free Jazz
Носитель: CDR
Страна-производитель диска: U.S.A.
Год издания: 2004
Издатель (лейбл): Metastablesound
Номер по каталогу: 008
Аудиокодек: FLAC (*.flac)
Тип рипа: tracks+.cue
Битрейт аудио: lossless
Продолжительность: 47:45
Источник (релизер): я
Наличие сканов в содержимом раздачи: да
Треклист:
1. Ident #3 Module A (+ « Scatter ») 11:53
2. Ident #3 Module B 9:30
3. Ident #3 Module C 13:16
4. Ident #3 Module D 13:07
All compositions by Paul Hartsaw.
Tracks 1 & 2 recorded live @ 3030 Chicago IL 06/03/04.
Tracks 3 & 4 recorded live @ Hungry Brain Chicago IL 06/06/04.
Jim Baker – ARP Synth, Piano
Josh Berman – Cornet
Jeb Bishop – Trombone
Nick Broste – Trombone
Paul Hartsaw – Soprano & Tenor Saxophones
Anton Hatwich – Bass
Clifton Hyde – Live Electronics, Chapman Stick
Keefe Jackson – Tenor Saxophone, Bass Clarinet
Dave Rempis – Alto Saxophone
Frank Rosaly – Percussion
 
Лог создания рипа
Exact Audio Copy V1.0 beta 3 from 29. August 2011
EAC extraction logfile from 13. May 2014, 13:18
Paul Hartsaw Tentet / Chicago 2004
Used drive : SlimtypeeNAU508 5 Adapter: 1 ID: 0
Read mode : Secure
Utilize accurate stream : Yes
Defeat audio cache : Yes
Make use of C2 pointers : No
Read offset correction : 6
Overread into Lead-In and Lead-Out : No
Fill up missing offset samples with silence : Yes
Delete leading and trailing silent blocks : No
Null samples used in CRC calculations : Yes
Used interface : Native Win32 interface for Win NT & 2000
Gap handling : Appended to previous track
Used output format : User Defined Encoder
Selected bitrate : 768 kBit/s
Quality : High
Add ID3 tag : No
Command line compressor : C:\Program Files (x86)\Exact Audio Copy\Flac\flac.exe
Additional command line options : -8 -V -T "ARTIST=%artist%" -T "TITLE=%title%" -T "ALBUM=%albumtitle%" -T "DATE=%year%" -T "TRACKNUMBER=%tracknr%" -T "TOTALTRACKS=%numtracks%" -T "GENRE=%genre%" -T "ALBUMARTIST=%albumartist%" -T "ALBUM ARTIST=%albumartist%" -T "COMMENT=EAC Secure Mode, Test & Copy, AccurateRip, FLAC -8" %source%
TOC of the extracted CD
Track | Start | Length | Start sector | End sector
---------------------------------------------------------
1 | 0:00.00 | 11:52.58 | 0 | 53457
2 | 11:52.58 | 9:29.66 | 53458 | 96198
3 | 21:22.49 | 13:16.09 | 96199 | 155907
4 | 34:38.58 | 13:06.47 | 155908 | 214904
Track 1
Filename C:\EAC rips\01 - Ident #3 Module A (+ 'Scatter').wav
Pre-gap length 0:00:02.00
Peak level 56.1 %
Extraction speed 2.7 X
Track quality 99.9 %
Test CRC E17181E1
Copy CRC E17181E1
Track not present in AccurateRip database
Copy OK
Track 2
Filename C:\EAC rips\02 - Ident #3 Module B.wav
Peak level 75.4 %
Extraction speed 3.4 X
Track quality 100.0 %
Test CRC 94328706
Copy CRC 94328706
Track not present in AccurateRip database
Copy OK
Track 3
Filename C:\EAC rips\03 - Ident #3 Module C.wav
Peak level 82.0 %
Extraction speed 3.7 X
Track quality 99.9 %
Test CRC C340CFE4
Copy CRC C340CFE4
Track not present in AccurateRip database
Copy OK
Track 4
Filename C:\EAC rips\04 - Ident #3 Module D.wav
Peak level 71.8 %
Extraction speed 4.5 X
Track quality 100.0 %
Test CRC 011B1278
Copy CRC 011B1278
Track not present in AccurateRip database
Copy OK
None of the tracks are present in the AccurateRip database
No errors occurred
End of status report
---- CUETools DB Plugin V2.1.4
[CTDB TOCID: HmHzEoF5H1426WPAu0tp81FHetE-] disk not present in database
Submit result: HmHzEoF5H1426WPAu0tp81FHetE- has been uploaded
==== Log checksum C7F7567507A3D8A912FD830A8A93E15D19FCBB8D6A995A981D4AFD9ED51AF371 ====
 
Содержание индексной карты (.CUE)
REM GENRE Jazz
REM DATE 2004
REM DISCID 270B3104
REM COMMENT "ExactAudioCopy v1.0b3"
PERFORMER "Paul Hartsaw Tentet"
TITLE "Chicago 2004"
FILE "01 - Ident #3 Module A (+ 'Scatter').wav" WAVE
TRACK 01 AUDIO
TITLE "Ident #3 Module A (+ 'Scatter')"
PERFORMER "Paul Hartsaw Tentet"
FLAGS DCP
INDEX 01 00:00:00
FILE "02 - Ident #3 Module B.wav" WAVE
TRACK 02 AUDIO
TITLE "Ident #3 Module B"
PERFORMER "Paul Hartsaw Tentet"
FLAGS DCP
INDEX 01 00:00:00
FILE "03 - Ident #3 Module C.wav" WAVE
TRACK 03 AUDIO
TITLE "Ident #3 Module C"
PERFORMER "Paul Hartsaw Tentet"
FLAGS DCP
INDEX 01 00:00:00
FILE "04 - Ident #3 Module D.wav" WAVE
TRACK 04 AUDIO
TITLE "Ident #3 Module D"
PERFORMER "Paul Hartsaw Tentet"
FLAGS DCP
INDEX 01 00:00:00
По всем вопросам пишите личное сообщение пользователю M0p94ok.
01:58
250
Нет комментариев. Ваш будет первым!