Вы используете незарегистрированную версию компонента "Вкладки"!

Поиск

(Contemporary Jazz) Andrzej Trzaskowski - Polish Jazz vol. 2 - 1997, FLAC (tracks+.cue), lossless

(Contemporary Jazz) Andrzej Trzaskowski - Polish Jazz vol. 2 - 1997, FLAC (tracks+.cue), lossless
Треклист:
Andrzej Trzaskowski - Polish Jazz vol. 2
Жанр: Contemporary Jazz
Страна-производитель диска: Poland
Год издания: 1997
Издатель (лейбл): Polskie Nagrania
Номер по каталогу: PNCD 025
Аудиокодек: FLAC (*.flac)
Тип рипа: tracks+.cue
Битрейт аудио: lossless
Продолжительность: 75 min.
Источник (релизер): собственный рип с оригинального диска.
Наличие сканов в содержимом раздачи: да
Треклист:
01. Requiem For Scotty
02. Synopsis - Expression I - Expression II - Impression
03. A Ballad With Cadence In Horace Silver's Style
04. Post Scriptum
05. Seant
06. Variation On The Theme "Near The Forest"
07. The Quibble
08. Cosinusoida
 
Лог создания рипа
Exact Audio Copy V1.0 beta 3 from 29. August 2011
EAC extraction logfile from 28. May 2013, 17:30
Andrzej Trzaskowski / Polish Jazz vol. 2
Used drive : TSSTcorpCDDVDW SH-S222A Adapter: 1 ID: 0
Read mode : Secure
Utilize accurate stream : Yes
Defeat audio cache : Yes
Make use of C2 pointers : No
Read offset correction : 6
Overread into Lead-In and Lead-Out : No
Fill up missing offset samples with silence : Yes
Delete leading and trailing silent blocks : No
Null samples used in CRC calculations : Yes
Used interface : Native Win32 interface for Win NT & 2000
Gap handling : Appended to previous track
Used output format : User Defined Encoder
Selected bitrate : 896 kBit/s
Quality : High
Add ID3 tag : No
Command line compressor : C:\Tool\CD\EAC10\FLAC\FLAC.EXE
Additional command line options : -8 -V -T "ARTIST=%artist%" -T "TITLE=%title%" -T "ALBUM=%albumtitle%" -T "DATE=%year%" -T "TRACKNUMBER=%tracknr%" -T "GENRE=%genre%" -T "PERFORMER=%albuminterpret%" -T "COMPOSER=%composer%" %haslyrics%--tag-from-file=LYRICS="%lyricsfile%"%haslyrics% -T "ALBUMARTIST=%albumartist%" -T "ALBUM ARTIST=%albumartist%" -T "DISCNUMBER=%cdnumber%" -T "TOTALDISCS=%totalcds%" -T "TOTALTRACKS=%numtracks%" -T "COMMENT=EAC V1.0 beta 3, Secure Mode, Test & Copy, AccurateRip, FLAC -8" %source% -o %dest%
TOC of the extracted CD
Track | Start | Length | Start sector | End sector
---------------------------------------------------------
1 | 0:00.00 | 2:47.00 | 0 | 12524
2 | 2:47.00 | 18:14.60 | 12525 | 94634
3 | 21:01.60 | 1:43.30 | 94635 | 102389
4 | 22:45.15 | 2:46.35 | 102390 | 114874
5 | 25:31.50 | 10:06.43 | 114875 | 160367
6 | 35:38.18 | 6:37.25 | 160368 | 190167
7 | 42:15.43 | 7:59.45 | 190168 | 226137
8 | 50:15.13 | 24:50.22 | 226138 | 337909
Track 1
Filename C:\! UPLOAD\Andrzej Trzaskowski - Polish Jazz Vol. 2 (1997) [FLAC]\01 - Requiem for Scotty.wav
Pre-gap length 0:00:02.00
Peak level 89.0 %
Extraction speed 3.3 X
Track quality 99.9 %
Test CRC 8B55D170
Copy CRC 8B55D170
Track not present in AccurateRip database
Copy OK
Track 2
Filename C:\! UPLOAD\Andrzej Trzaskowski - Polish Jazz Vol. 2 (1997) [FLAC]\02 - Synopsis.wav
Pre-gap length 0:00:02.55
Peak level 70.0 %
Extraction speed 6.2 X
Track quality 100.0 %
Test CRC 31943F10
Copy CRC 31943F10
Track not present in AccurateRip database
Copy OK
Track 3
Filename C:\! UPLOAD\Andrzej Trzaskowski - Polish Jazz Vol. 2 (1997) [FLAC]\03 - A Ballad with Cadence in Horace Silver's Style.wav
Pre-gap length 0:00:02.55
Peak level 76.5 %
Extraction speed 5.5 X
Track quality 100.0 %
Test CRC D6743D34
Copy CRC D6743D34
Track not present in AccurateRip database
Copy OK
Track 4
Filename C:\! UPLOAD\Andrzej Trzaskowski - Polish Jazz Vol. 2 (1997) [FLAC]\04 - Post Scriptum.wav
Pre-gap length 0:00:02.55
Peak level 80.2 %
Extraction speed 6.1 X
Track quality 100.0 %
Test CRC CE7B57C0
Copy CRC CE7B57C0
Track not present in AccurateRip database
Copy OK
Track 5
Filename C:\! UPLOAD\Andrzej Trzaskowski - Polish Jazz Vol. 2 (1997) [FLAC]\05 - Seant.wav
Pre-gap length 0:00:02.55
Peak level 93.8 %
Extraction speed 6.9 X
Track quality 99.9 %
Test CRC 1E532D21
Copy CRC 1E532D21
Track not present in AccurateRip database
Copy OK
Track 6
Filename C:\! UPLOAD\Andrzej Trzaskowski - Polish Jazz Vol. 2 (1997) [FLAC]\06 - Varation on the Theme ''Near the Forest''.wav
Pre-gap length 0:00:02.55
Peak level 78.0 %
Extraction speed 7.9 X
Track quality 100.0 %
Test CRC 01C20F1B
Copy CRC 01C20F1B
Track not present in AccurateRip database
Copy OK
Track 7
Filename C:\! UPLOAD\Andrzej Trzaskowski - Polish Jazz Vol. 2 (1997) [FLAC]\07 - The Quibble.wav
Pre-gap length 0:00:02.58
Peak level 86.8 %
Extraction speed 8.4 X
Track quality 100.0 %
Test CRC 380B62A7
Copy CRC 380B62A7
Track not present in AccurateRip database
Copy OK
Track 8
Filename C:\! UPLOAD\Andrzej Trzaskowski - Polish Jazz Vol. 2 (1997) [FLAC]\08 - Cosinusoida.wav
Pre-gap length 0:00:02.55
Peak level 95.9 %
Extraction speed 9.6 X
Track quality 100.0 %
Test CRC 7C6820AE
Copy CRC 7C6820AE
Track not present in AccurateRip database
Copy OK
None of the tracks are present in the AccurateRip database
No errors occurred
End of status report
---- CUETools DB Plugin V2.1.3
[CTDB TOCID: .c5ILhOVOgE1e5MVGNw6ylAOWVE-] disk not present in database, Submit result: .c5ILhOVOgE1e5MVGNw6ylAOWVE- has been uploaded
==== Log checksum 7BB40B9884AE450F71ED63A2F6112E693A5A622EBF9A007CAE79CEB383BA97B6 ====
 
Содержание индексной карты (.CUE)
REM GENRE Jazz
REM DATE 1997
REM DISCID 5E119908
REM COMMENT "ExactAudioCopy v1.0b3"
PERFORMER "Andrzej Trzaskowski"
TITLE "Polish Jazz vol. 2"
FILE "01 - Requiem for Scotty.wav" WAVE
TRACK 01 AUDIO
TITLE "Requiem for Scotty"
PERFORMER "Andrzej Trzaskowski"
ISRC PNCDA6509722
INDEX 01 00:00:00
TRACK 02 AUDIO
TITLE "Synopsis"
PERFORMER "Andrzej Trzaskowski"
ISRC PNCDA6596950
INDEX 00 02:44:20
FILE "02 - Synopsis.wav" WAVE
INDEX 01 00:00:00
TRACK 03 AUDIO
TITLE "A Ballad with Cadence in Horace Silver's Style"
PERFORMER "Andrzej Trzaskowski"
ISRC PNCDA6509723
INDEX 00 18:12:05
FILE "03 - A Ballad with Cadence in Horace Silver's Style.wav" WAVE
INDEX 01 00:00:00
TRACK 04 AUDIO
TITLE "Post Scriptum"
PERFORMER "Andrzej Trzaskowski"
ISRC PNCDA6509698
INDEX 00 01:40:50
FILE "04 - Post Scriptum.wav" WAVE
INDEX 01 00:00:00
TRACK 05 AUDIO
TITLE "Seant"
PERFORMER "Andrzej Trzaskowski"
ISRC PNCDA6610990
INDEX 00 02:43:55
FILE "05 - Seant.wav" WAVE
INDEX 01 00:00:00
TRACK 06 AUDIO
TITLE "Varation on the Theme 'Near the Forest'"
PERFORMER "Andrzej Trzaskowski"
ISRC PNCDA6610992
INDEX 00 10:03:63
FILE "06 - Varation on the Theme ''Near the Forest''.wav" WAVE
INDEX 01 00:00:00
TRACK 07 AUDIO
TITLE "The Quibble"
PERFORMER "Andrzej Trzaskowski"
ISRC PNCDA6610991
INDEX 00 06:34:42
FILE "07 - The Quibble.wav" WAVE
INDEX 01 00:00:00
TRACK 08 AUDIO
TITLE "Cosinusoida"
PERFORMER "Andrzej Trzaskowski"
ISRC PNCDA6610060
INDEX 00 07:56:65
FILE "08 - Cosinusoida.wav" WAVE
INDEX 01 00:00:00
Доп. информация:
Tracks 01-04 recorded in January and February 1965, Warsaw,
tracks 05-08 recorded in National Philharmonic Hall in Warsaw, December 1965 (#08) and 1966
 
Об исполнителе (группе)
BIOGRAPHY
Andrzej Trzaskowski (born 23 March 1933 in Kraków, Poland) was a Polish jazz musician. He played the piano as a child and later studied musicology at university in Kraków (to 1957); he also took private lessons in composition and contemporary music theory and was active at the experimental studio of Polish radio. In 1951 he helped to form Melomani, one of the first Polish swing and bop groups. During 1958 he played and recorded with the Jazz Believers, a quintet that included Wojciech Karolak and Jan Ptaszyn Wróblewski, and worked with another quintet, led by Jerzy Matuszkiewicz.
The following year he formed his own hard bop group, the Wreckers, with which he toured the USA in 1962; as the leader of small groups he performed and recorded with American musicians visiting Poland, such as Stan Getz (1960) and Ted Curson (1965-6). Many leading Polish musicians, including Zbigniew Namyslowski, Tomasz Stanko, and Michal Urbaniak, played with his groups early in their careers. Trzaskowski began to incorporate avant-garde techniques in his work from 1964. In the late 1960s he worked regularly for Norddeutscher Rundfunk in Hamburg, West Germany, writing more than 20 compositions and participating in workshops, then from 1975 he led an orchestra for Polish radio and television.
Although an excellent pianist, from the early 1970s he has concentrated more on composition. He has written music for films and theater, two jazz ballets, and Nihil novi, a third-stream work performed by Don Ellis at the International Jazz Jamboree in Warsaw (1962).
 
Состав
Andrzej Trzaskowski Quintet (1965):
Andrzej Trzaskowski - piano
Tomasz Stanko - trumpet
Janusz Muniak - soprano saxophone, alto saxophone
Jacek Ostaszewski - bass
Adam Jedrzejewski - drums
The Andrzej Trzaskowski Sextet (1966):
Andrzej Trzaskowski - piano
Ted Curson - trumpet
Wlodzimierz Nahorny - alto saxophone
Janusz Muniak - soprano saxophone
Jacek Ostaszewski - bass
Adam Jedrzejczak - drums
Any questions -> support@pro-jazz.com. По всем вопросам пишите -> support@pro-jazz.com
15:57
166
Нет комментариев. Ваш будет первым!