Вы используете незарегистрированную версию компонента "Вкладки"!

Поиск

(Avant-Garde / Jazz-Rock) Lucien Dubuis Trio - Le Retour - 2007, FLAC (image+.cue), lossless

(Avant-Garde / Jazz-Rock) Lucien Dubuis Trio - Le Retour - 2007, FLAC (image+.cue), lossless
Треклист:
Lucien Dubuis Trio / Le Retour
Жанр: Avant-Garde / Jazz-Rock
Страна: Switzerland
Год издания: 2007
Страна-производитель диска: Switzerland
Издатель (лейбл): Unit Records
Номер по каталогу: UTR 4199
Аудиокодек: FLAC (*.flac)
Тип рипа: image+.cue
Битрейт аудио: lossless
Продолжительность: 54:10:40
Источник (релизер): AudioGed
Наличие сканов в содержимом раздачи: нет
Треклист:
01. Il était une fois 2:43
02. Sansara 2:52
03. Petite fleur bleue 1:58
04. Shit Funk 0:20
05. Gagon 3:03
06. Sosores 2:56
07. Les copains monstres 3:13
08. Shit Pop 0:57
09. Princesse de l'espace 4:02
10. Ylano 5:41
11. Shit Interlude 2:54
12. Gacor 2:09
13. You're awesome 4:16
14. Le 31e 1:16
15. Quincoquin 3:25
16. Shit Rock'n'roll 1:12
17. Ein Stück für Freizeit 3:56
18. First Love 4:54
19. Plan B 2:22
 
Лог создания рипа
Exact Audio Copy V1.0 beta 3 from 29. August 2011
EAC extraction logfile from 13. July 2013, 1:21
Lucien Dubuis Trio / Le Retour
Used drive : PIONEER DVD-RW DVR-220L Adapter: 0 ID: 0
Read mode : Secure
Utilize accurate stream : Yes
Defeat audio cache : Yes
Make use of C2 pointers : No
Read offset correction : 6
Overread into Lead-In and Lead-Out : No
Fill up missing offset samples with silence : Yes
Delete leading and trailing silent blocks : No
Null samples used in CRC calculations : Yes
Used interface : Native Win32 interface for Win NT & 2000
Used output format : User Defined Encoder
Selected bitrate : 128 kBit/s
Quality : High
Add ID3 tag : No
Command line compressor : D:\Distr\MultiMedia\Convert\FLAC\FLAC_1.3.0\flac-1.3.0-x64-icl\flac.exe
Additional command line options : -V -8 -T "Date=%year%" -T "Genre=%genre%" %source%
TOC of the extracted CD
Track | Start | Length | Start sector | End sector
---------------------------------------------------------
1 | 0:00.00 | 2:43.17 | 0 | 12241
2 | 2:43.17 | 2:52.05 | 12242 | 25146
3 | 5:35.22 | 1:57.49 | 25147 | 33970
4 | 7:32.71 | 0:20.23 | 33971 | 35493
5 | 7:53.19 | 3:03.18 | 35494 | 49236
6 | 10:56.37 | 2:55.54 | 49237 | 62415
7 | 13:52.16 | 3:12.56 | 62416 | 76871
8 | 17:04.72 | 0:57.10 | 76872 | 81156
9 | 18:02.07 | 4:02.15 | 81157 | 99321
10 | 22:04.22 | 5:40.52 | 99322 | 124873
11 | 27:44.74 | 2:54.15 | 124874 | 137938
12 | 30:39.14 | 2:09.13 | 137939 | 147626
13 | 32:48.27 | 4:16.06 | 147627 | 166832
14 | 37:04.33 | 1:16.09 | 166833 | 172541
15 | 38:20.42 | 3:25.08 | 172542 | 187924
16 | 41:45.50 | 1:12.28 | 187925 | 193352
17 | 42:58.03 | 3:56.27 | 193353 | 211079
18 | 46:54.30 | 4:53.74 | 211080 | 233128
19 | 51:48.29 | 2:22.01 | 233129 | 243779
Range status and errors
Selected range
Filename D:\Music\CD\Lucien Dubuis Trio\2007 - Le Retour\Lucien Dubuis Trio - Le Retour.wav
Peak level 100.0 %
Extraction speed 7.2 X
Range quality 100.0 %
Test CRC 884F5830
Copy CRC 884F5830
Copy OK
No errors occurred
AccurateRip summary
Track 1 not present in database
Track 2 not present in database
Track 3 not present in database
Track 4 not present in database
Track 5 not present in database
Track 6 not present in database
Track 7 not present in database
Track 8 not present in database
Track 9 not present in database
Track 10 not present in database
Track 11 not present in database
Track 12 not present in database
Track 13 not present in database
Track 14 not present in database
Track 15 not present in database
Track 16 not present in database
Track 17 not present in database
Track 18 not present in database
Track 19 not present in database
None of the tracks are present in the AccurateRip database
End of status report
==== Log checksum DDDC9A03CAF2E7C192484BFE57ADF2CBD113F82A13B994F8912FFB790A47B37D ====
 
Об исполнителе (группе)
Lucien Dubuis Trio developped his own style, the future rock. A mix between every kind of influences, on the service of energy. Humour, freedom and game are part of the means. Occasionally, Marc Ribot (guitar, NYC) joins the trio. They recorded together the “Ultime Cosmos” album in New York, which was released in 2009 by the label ENJA Records.
The trio plays on stages all around the world since 1998. It received a composition order and the support of the priority jazz program from the Swiss Arts Council.
In 2010, it represented Switzerland at the Swiss Pavilion at the Universal Exposition in Shanghaï.
Their upcoming album “Future Rock” has been recorded in November 2011 in New York and will be out soon.
 
Состав
Lucien Dubuis - saxophone alto, clarinette basse et clarinette contrebasse
Born in Porrentruy, Switzerland, in 1974, non-conformistic multi-reedist Lucien Dubuis has been an active musician in the jazz and improvised music scene for several years — with more than 20 albums to his credit. He has worked with such as Marc Ribot, Hans Koch, Daniel Humair, Richie Beirach, Barry Guy, Kalle Kalima, Linda Sharrock, Daniel Erdmann and played big festivals in New York, Montreux, Rome, Shanghai, Geneva, La Paz, Bogotá and other places.
In 2010, Lucien Dubuis received the Culture Award from Biel/Bienne City (CH).
In 2011, he received the grant of the Canton of Bern for a 6 months residence in New York.
Roman Nowka - basse, guitare, voix
Lionel Friedli - batterie et ustensiles
Dania Rodari: voix sur Princesse de l'espace
Доп. информация с диска:
Compositions: Lucien Dubuis
Excepte les shits... composes par le trio et You're awesome, First Love et Plan B composes par Roman Nowka. Texte d'Emilie Bronte dans Princesse de l'espace.
Enregistre et mixe au Studio Mecanique, La Chaux-de-Fonds par Julien Fehlmann.
Masterise par Gabriel Wallach, Lurssen MasteringLos Angeles.
Сайт группы: http://www.luciendubuistrio.ch/
Any questions -> support@pro-jazz.com. По всем вопросам пишите -> support@pro-jazz.com
15:57
179
Нет комментариев. Ваш будет первым!