Вы используете незарегистрированную версию компонента "Вкладки"!

Поиск

(Contemporary Classical, Experimental, Indie Rock, Free Improvisation) [CD] Os Meus Shorts (Nico Roig & Joachim Badenhorst) - Os Meus Shorts - 2008, FLAC (tracks+.cue), lossless

(Contemporary Classical, Experimental, Indie Rock, Free Improvisation) [CD] Os Meus Shorts (Nico Roig & Joachim Badenhorst) - Os Meus Shorts - 2008, FLAC (tracks+.cue), lossless
Треклист:
Os Meus Shorts / Os Meus Shorts
Жанр: Contemporary Classical, Experimental, Indie Rock, Free Improvisation...
Носитель: CD
Страна-производитель диска: Belgium
Год издания: 2008
Издатель (лейбл): Rat Records
Номер по каталогу: rat 010
Аудиокодек: FLAC (*.flac)
Тип рипа: tracks+.cue
Битрейт аудио: lossless
Продолжительность: 46:41
Источник (релизер): я
Наличие сканов в содержимом раздачи: да
Треклист:
01. Teva (1:09)
02. Kiko (1:10)
03. Le Même Jour / Le Jour même (1:23)
04. Caixeta (1:41)
05. Excursió (1:12)
06. Ode III (1:56)
07. Forat (1:24)
08. Little Cloud (1:47)
09. Johnny Guitar I (2:34)
10. 1a Crosta (1:13)
11. Come with Me to Singapore (2:12)
12. Massatge preliminar (1:41)
13. Neko Nabo (1:12)
14. Emilia Blue (1:13)
15. Epoque (1:01)
16. Pedres (1:45)
17. Flamingo (2:20)
18. Relació (1:24)
19. Dibuix (2:41)
20. Boku no tchiisana kumo (1:15)
21. Kumo (0:42)
22. Cadàvers secs (1:03)
23. A través (1:06)
24. Apaga la ràdio (1:57)
25. Meva (1:03)
26. H (2:29)
27. It All Makes Sense (2:16)
28. Ode II (3:52)
All compositions by Nico Roig.
Recorded March 2007 by Laurent Gueuning.
Nico Roig – Baritone Guitar
Joachim Badenhorst – Bass Clarinet
 
Лог создания рипа
Exact Audio Copy V1.0 beta 3 from 29. August 2011
EAC extraction logfile from 20. October 2014, 14:18
Os Meus Shorts / Os Meus Shorts
Used drive : SlimtypeeNAU508 5 Adapter: 1 ID: 0
Read mode : Secure
Utilize accurate stream : Yes
Defeat audio cache : Yes
Make use of C2 pointers : No
Read offset correction : 6
Overread into Lead-In and Lead-Out : No
Fill up missing offset samples with silence : Yes
Delete leading and trailing silent blocks : No
Null samples used in CRC calculations : Yes
Used interface : Native Win32 interface for Win NT & 2000
Gap handling : Appended to previous track
Used output format : User Defined Encoder
Selected bitrate : 768 kBit/s
Quality : High
Add ID3 tag : No
Command line compressor : C:\Program Files (x86)\Exact Audio Copy\Flac\flac.exe
Additional command line options : -8 -V -T "ARTIST=%artist%" -T "TITLE=%title%" -T "ALBUM=%albumtitle%" -T "DATE=%year%" -T "TRACKNUMBER=%tracknr%" -T "TOTALTRACKS=%numtracks%" -T "GENRE=%genre%" -T "ALBUMARTIST=%albumartist%" -T "ALBUM ARTIST=%albumartist%" -T "COMMENT=EAC Secure Mode, Test & Copy, AccurateRip, FLAC -8" %source%
TOC of the extracted CD
Track | Start | Length | Start sector | End sector
---------------------------------------------------------
1 | 0:00.00 | 1:09.27 | 0 | 5201
2 | 1:09.27 | 1:10.11 | 5202 | 10462
3 | 2:19.38 | 1:23.21 | 10463 | 16708
4 | 3:42.59 | 1:41.17 | 16709 | 24300
5 | 5:24.01 | 1:12.13 | 24301 | 29713
6 | 6:36.14 | 1:56.26 | 29714 | 38439
7 | 8:32.40 | 1:23.50 | 38440 | 44714
8 | 9:56.15 | 1:46.57 | 44715 | 52721
9 | 11:42.72 | 2:33.58 | 52722 | 64254
10 | 14:16.55 | 1:13.15 | 64255 | 69744
11 | 15:29.70 | 2:11.41 | 69745 | 79610
12 | 17:41.36 | 1:40.52 | 79611 | 87162
13 | 19:22.13 | 1:11.54 | 87163 | 92541
14 | 20:33.67 | 1:12.61 | 92542 | 98002
15 | 21:46.53 | 1:01.04 | 98003 | 102581
16 | 22:47.57 | 1:45.14 | 102582 | 110470
17 | 24:32.71 | 2:19.72 | 110471 | 120967
18 | 26:52.68 | 1:23.47 | 120968 | 127239
19 | 28:16.40 | 2:40.62 | 127240 | 139301
20 | 30:57.27 | 1:14.57 | 139302 | 144908
21 | 32:12.09 | 0:42.02 | 144909 | 148060
22 | 32:54.11 | 1:03.35 | 148061 | 152820
23 | 33:57.46 | 1:05.41 | 152821 | 157736
24 | 35:03.12 | 1:56.57 | 157737 | 166493
25 | 36:59.69 | 1:03.04 | 166494 | 171222
26 | 38:02.73 | 2:29.27 | 171223 | 182424
27 | 40:32.25 | 2:16.14 | 182425 | 192638
28 | 42:48.39 | 3:52.31 | 192639 | 210069
Track 1
Filename C:\EAC rips\01 - Teva.wav
Pre-gap length 0:00:02.00
Peak level 98.4 %
Extraction speed 0.9 X
Track quality 99.8 %
Test CRC 8F083F43
Copy CRC 8F083F43
Track not present in AccurateRip database
Copy OK
Track 2
Filename C:\EAC rips\02 - Kiko.wav
Peak level 98.8 %
Extraction speed 1.5 X
Track quality 100.0 %
Test CRC 9B702FCE
Copy CRC 9B702FCE
Track not present in AccurateRip database
Copy OK
Track 3
Filename C:\EAC rips\03 - Le Même Jour - Le Jour même.wav
Peak level 98.8 %
Extraction speed 1.6 X
Track quality 100.0 %
Test CRC FBD23D1C
Copy CRC FBD23D1C
Track not present in AccurateRip database
Copy OK
Track 4
Filename C:\EAC rips\04 - Caixeta.wav
Peak level 98.8 %
Extraction speed 1.2 X
Track quality 99.8 %
Test CRC 4471B4C8
Copy CRC 4471B4C8
Track not present in AccurateRip database
Copy OK
Track 5
Filename C:\EAC rips\05 - Excursió.wav
Pre-gap length 0:00:00.53
Peak level 99.9 %
Extraction speed 1.7 X
Track quality 100.0 %
Test CRC A8C0014D
Copy CRC A8C0014D
Track not present in AccurateRip database
Copy OK
Track 6
Filename C:\EAC rips\06 - Ode III.wav
Peak level 88.6 %
Extraction speed 2.0 X
Track quality 100.0 %
Test CRC 7F6F8B68
Copy CRC 7F6F8B68
Track not present in AccurateRip database
Copy OK
Track 7
Filename C:\EAC rips\07 - Forat.wav
Peak level 98.8 %
Extraction speed 1.3 X
Track quality 99.8 %
Test CRC 15970ADC
Copy CRC 15970ADC
Track not present in AccurateRip database
Copy OK
Track 8
Filename C:\EAC rips\08 - Little Cloud.wav
Peak level 75.5 %
Extraction speed 2.1 X
Track quality 100.0 %
Test CRC FAB4F34A
Copy CRC FAB4F34A
Track not present in AccurateRip database
Copy OK
Track 9
Filename C:\EAC rips\09 - Johnny Guitar I.wav
Pre-gap length 0:00:00.30
Peak level 98.8 %
Extraction speed 2.4 X
Track quality 100.0 %
Test CRC 868AC6D8
Copy CRC 868AC6D8
Track not present in AccurateRip database
Copy OK
Track 10
Filename C:\EAC rips\10 - 1a Crosta.wav
Peak level 98.6 %
Extraction speed 2.1 X
Track quality 100.0 %
Test CRC 5DA42787
Copy CRC 5DA42787
Track not present in AccurateRip database
Copy OK
Track 11
Filename C:\EAC rips\11 - Come with Me to Singapore.wav
Peak level 98.8 %
Extraction speed 2.5 X
Track quality 100.0 %
Test CRC 14DEF3EB
Copy CRC 14DEF3EB
Track not present in AccurateRip database
Copy OK
Track 12
Filename C:\EAC rips\12 - Massatge preliminar.wav
Peak level 98.8 %
Extraction speed 2.4 X
Track quality 100.0 %
Test CRC 81CC3063
Copy CRC 81CC3063
Track not present in AccurateRip database
Copy OK
Track 13
Filename C:\EAC rips\13 - Neko Nabo.wav
Pre-gap length 0:00:01.02
Peak level 98.3 %
Extraction speed 1.4 X
Track quality 99.8 %
Test CRC DCA22ABD
Copy CRC DCA22ABD
Track not present in AccurateRip database
Copy OK
Track 14
Filename C:\EAC rips\14 - Emilia Blue.wav
Peak level 98.8 %
Extraction speed 2.2 X
Track quality 100.0 %
Test CRC 1F52773C
Copy CRC 1F52773C
Track not present in AccurateRip database
Copy OK
Track 15
Filename C:\EAC rips\15 - Epoque.wav
Peak level 100.0 %
Extraction speed 1.3 X
Track quality 99.8 %
Test CRC FCA294C6
Copy CRC FCA294C6
Track not present in AccurateRip database
Copy OK
Track 16
Filename C:\EAC rips\16 - Pedres.wav
Peak level 98.8 %
Extraction speed 2.6 X
Track quality 100.0 %
Test CRC F57F1659
Copy CRC F57F1659
Track not present in AccurateRip database
Copy OK
Track 17
Filename C:\EAC rips\17 - Flamingo.wav
Peak level 96.6 %
Extraction speed 2.8 X
Track quality 100.0 %
Test CRC 8C2E87E9
Copy CRC 8C2E87E9
Track not present in AccurateRip database
Copy OK
Track 18
Filename C:\EAC rips\18 - Relació.wav
Peak level 98.8 %
Extraction speed 1.7 X
Track quality 99.8 %
Test CRC C92353C8
Copy CRC C92353C8
Track not present in AccurateRip database
Copy OK
Track 19
Filename C:\EAC rips\19 - Dibuix.wav
Peak level 98.8 %
Extraction speed 3.0 X
Track quality 100.0 %
Test CRC 6757850E
Copy CRC 6757850E
Track not present in AccurateRip database
Copy OK
Track 20
Filename C:\EAC rips\20 - Boku no tchiisana kumo.wav
Peak level 98.8 %
Extraction speed 2.6 X
Track quality 100.0 %
Test CRC EC9AFB0B
Copy CRC EC9AFB0B
Track not present in AccurateRip database
Copy OK
Track 21
Filename C:\EAC rips\21 - Kumo.wav
Peak level 98.8 %
Extraction speed 2.0 X
Track quality 100.0 %
Test CRC 89351B82
Copy CRC 89351B82
Track not present in AccurateRip database
Copy OK
Track 22
Filename C:\EAC rips\22 - Cadàvers secs.wav
Peak level 98.8 %
Extraction speed 2.5 X
Track quality 100.0 %
Test CRC 66811C3D
Copy CRC 66811C3D
Track not present in AccurateRip database
Copy OK
Track 23
Filename C:\EAC rips\23 - A través.wav
Peak level 98.8 %
Extraction speed 2.5 X
Track quality 100.0 %
Test CRC 34876D0C
Copy CRC 34876D0C
Track not present in AccurateRip database
Copy OK
Track 24
Filename C:\EAC rips\24 - Apaga la ràdio.wav
Peak level 98.8 %
Extraction speed 3.0 X
Track quality 100.0 %
Test CRC 5C94240F
Copy CRC 5C94240F
Track not present in AccurateRip database
Copy OK
Track 25
Filename C:\EAC rips\25 - Meva.wav
Peak level 98.8 %
Extraction speed 1.6 X
Track quality 99.8 %
Test CRC B9AB0D6E
Copy CRC B9AB0D6E
Track not present in AccurateRip database
Copy OK
Track 26
Filename C:\EAC rips\26 - H.wav
Peak level 100.0 %
Extraction speed 2.5 X
Track quality 99.9 %
Test CRC 6D198C25
Copy CRC 6D198C25
Track not present in AccurateRip database
Copy OK
Track 27
Filename C:\EAC rips\27 - It All Makes Sense.wav
Peak level 98.8 %
Extraction speed 3.3 X
Track quality 100.0 %
Test CRC A28236A9
Copy CRC A28236A9
Track not present in AccurateRip database
Copy OK
Track 28
Filename C:\EAC rips\28 - Ode II.wav
Pre-gap length 0:00:05.55
Peak level 100.0 %
Extraction speed 3.1 X
Track quality 99.9 %
Test CRC 626FCE91
Copy CRC 626FCE91
Track not present in AccurateRip database
Copy OK
None of the tracks are present in the AccurateRip database
No errors occurred
End of status report
---- CUETools DB Plugin V2.1.4
[CTDB TOCID: Z60TJDmlTA2xP5AOTvRVBXKQ.lw-] disk not present in database
Submit result: Z60TJDmlTA2xP5AOTvRVBXKQ.lw- has been uploaded
==== Log checksum AA3A5612E7BFCDBE4904CA568CFEE85D12C26CE47BDD7709EAC49CB31B43DBF5 ====
 
Содержание индексной карты (.CUE)
REM GENRE Jazz
REM DATE 2008
REM DISCID 800AF01C
REM COMMENT "ExactAudioCopy v1.0b3"
PERFORMER "Os Meus Shorts"
TITLE "Os Meus Shorts "
FILE "01 - Teva.wav" WAVE
TRACK 01 AUDIO
TITLE "Teva"
PERFORMER "Os Meus Shorts"
INDEX 01 00:00:00
FILE "02 - Kiko.wav" WAVE
TRACK 02 AUDIO
TITLE "Kiko"
PERFORMER "Os Meus Shorts"
INDEX 01 00:00:00
FILE "03 - Le Même Jour - Le Jour même.wav" WAVE
TRACK 03 AUDIO
TITLE "Le Même Jour / Le Jour même"
PERFORMER "Os Meus Shorts"
INDEX 01 00:00:00
FILE "04 - Caixeta.wav" WAVE
TRACK 04 AUDIO
TITLE "Caixeta"
PERFORMER "Os Meus Shorts"
INDEX 01 00:00:00
TRACK 05 AUDIO
TITLE "Excursió"
PERFORMER "Os Meus Shorts"
INDEX 00 01:40:39
FILE "05 - Excursió.wav" WAVE
INDEX 01 00:00:00
FILE "06 - Ode III.wav" WAVE
TRACK 06 AUDIO
TITLE "Ode III"
PERFORMER "Os Meus Shorts"
INDEX 01 00:00:00
FILE "07 - Forat.wav" WAVE
TRACK 07 AUDIO
TITLE "Forat"
PERFORMER "Os Meus Shorts"
INDEX 01 00:00:00
FILE "08 - Little Cloud.wav" WAVE
TRACK 08 AUDIO
TITLE "Little Cloud"
PERFORMER "Os Meus Shorts"
INDEX 01 00:00:00
TRACK 09 AUDIO
TITLE "Johnny Guitar I"
PERFORMER "Os Meus Shorts"
INDEX 00 01:46:27
FILE "09 - Johnny Guitar I.wav" WAVE
INDEX 01 00:00:00
FILE "10 - 1a Crosta.wav" WAVE
TRACK 10 AUDIO
TITLE "1a Crosta"
PERFORMER "Os Meus Shorts"
INDEX 01 00:00:00
FILE "11 - Come with Me to Singapore.wav" WAVE
TRACK 11 AUDIO
TITLE "Come with Me to Singapore"
PERFORMER "Os Meus Shorts"
INDEX 01 00:00:00
FILE "12 - Massatge preliminar.wav" WAVE
TRACK 12 AUDIO
TITLE "Massatge preliminar"
PERFORMER "Os Meus Shorts"
INDEX 01 00:00:00
TRACK 13 AUDIO
TITLE "Neko Nabo"
PERFORMER "Os Meus Shorts"
INDEX 00 01:39:50
FILE "13 - Neko Nabo.wav" WAVE
INDEX 01 00:00:00
FILE "14 - Emilia Blue.wav" WAVE
TRACK 14 AUDIO
TITLE "Emilia Blue"
PERFORMER "Os Meus Shorts"
INDEX 01 00:00:00
FILE "15 - Epoque.wav" WAVE
TRACK 15 AUDIO
TITLE "Epoque"
PERFORMER "Os Meus Shorts"
INDEX 01 00:00:00
FILE "16 - Pedres.wav" WAVE
TRACK 16 AUDIO
TITLE "Pedres"
PERFORMER "Os Meus Shorts"
INDEX 01 00:00:00
FILE "17 - Flamingo.wav" WAVE
TRACK 17 AUDIO
TITLE "Flamingo"
PERFORMER "Os Meus Shorts"
INDEX 01 00:00:00
FILE "18 - Relació.wav" WAVE
TRACK 18 AUDIO
TITLE "Relació"
PERFORMER "Os Meus Shorts"
INDEX 01 00:00:00
FILE "19 - Dibuix.wav" WAVE
TRACK 19 AUDIO
TITLE "Dibuix"
PERFORMER "Os Meus Shorts"
INDEX 01 00:00:00
FILE "20 - Boku no tchiisana kumo.wav" WAVE
TRACK 20 AUDIO
TITLE "Boku no tchiisana kumo"
PERFORMER "Os Meus Shorts"
INDEX 01 00:00:00
FILE "21 - Kumo.wav" WAVE
TRACK 21 AUDIO
TITLE "Kumo"
PERFORMER "Os Meus Shorts"
INDEX 01 00:00:00
FILE "22 - Cadàvers secs.wav" WAVE
TRACK 22 AUDIO
TITLE "Cadàvers secs"
PERFORMER "Os Meus Shorts"
INDEX 01 00:00:00
FILE "23 - A través.wav" WAVE
TRACK 23 AUDIO
TITLE "A través"
PERFORMER "Os Meus Shorts"
INDEX 01 00:00:00
FILE "24 - Apaga la ràdio.wav" WAVE
TRACK 24 AUDIO
TITLE "Apaga la ràdio"
PERFORMER "Os Meus Shorts"
INDEX 01 00:00:00
FILE "25 - Meva.wav" WAVE
TRACK 25 AUDIO
TITLE "Meva"
PERFORMER "Os Meus Shorts"
INDEX 01 00:00:00
FILE "26 - H.wav" WAVE
TRACK 26 AUDIO
TITLE "H"
PERFORMER "Os Meus Shorts"
INDEX 01 00:00:00
FILE "27 - It All Makes Sense.wav" WAVE
TRACK 27 AUDIO
TITLE "It All Makes Sense"
PERFORMER "Os Meus Shorts"
INDEX 01 00:00:00
TRACK 28 AUDIO
TITLE "Ode II"
PERFORMER "Os Meus Shorts"
INDEX 00 02:10:34
FILE "28 - Ode II.wav" WAVE
INDEX 01 00:00:00
По всем вопросам пишите личное сообщение пользователю M0p94ok.
05:39
161
Нет комментариев. Ваш будет первым!