Вы используете незарегистрированную версию компонента "Вкладки"!

Поиск

(Avant-Garde, Free Improvisation) [CD] Hugues Vincent & Yasumune Morishige - Fragment - 2014, FLAC (tracks+.cue), lossless

Треклист:
Hugues Vincent & Yasumune Morishige / Fragment
Жанр: Avant-Garde, Free Improvisation
Носитель: CD
Страна-производитель диска: France
Год издания: 2014
Издатель (лейбл): Improvising Beings
Номер по каталогу: ib28
Аудиокодек: FLAC (*.flac)
Тип рипа: tracks+.cue
Битрейт аудио: lossless
Продолжительность: 43:40
Источник (релизер): я
Наличие сканов в содержимом раздачи: да
Треклист:
1. I (3:50)
2. II (4:55)
3. III (3:56)
4. IV (5:04)
5. V (6:28)
6. VI (5:11)
7. VII (5:12)
8. VIII (3:29)
9. IX (5:34)
Recorded at Studio Nyima, Orléans, France on May 20 & 21, 2013.
Hugues Vincent – Cello
Yasumune Morishige – Cello
 
Лог создания рипа
Exact Audio Copy V1.0 beta 3 from 29. August 2011
EAC extraction logfile from 9. September 2014, 13:39
Hugues Vincent & Yasumune Morishige / Fragment
Used drive : SlimtypeeNAU508 5 Adapter: 1 ID: 0
Read mode : Secure
Utilize accurate stream : Yes
Defeat audio cache : Yes
Make use of C2 pointers : No
Read offset correction : 6
Overread into Lead-In and Lead-Out : No
Fill up missing offset samples with silence : Yes
Delete leading and trailing silent blocks : No
Null samples used in CRC calculations : Yes
Used interface : Native Win32 interface for Win NT & 2000
Gap handling : Appended to previous track
Used output format : User Defined Encoder
Selected bitrate : 768 kBit/s
Quality : High
Add ID3 tag : No
Command line compressor : C:\Program Files (x86)\Exact Audio Copy\Flac\flac.exe
Additional command line options : -8 -V -T "ARTIST=%artist%" -T "TITLE=%title%" -T "ALBUM=%albumtitle%" -T "DATE=%year%" -T "TRACKNUMBER=%tracknr%" -T "TOTALTRACKS=%numtracks%" -T "GENRE=%genre%" -T "ALBUMARTIST=%albumartist%" -T "ALBUM ARTIST=%albumartist%" -T "COMMENT=EAC Secure Mode, Test & Copy, AccurateRip, FLAC -8" %source%
TOC of the extracted CD
Track | Start | Length | Start sector | End sector
---------------------------------------------------------
1 | 0:00.00 | 3:49.38 | 0 | 17212
2 | 3:49.38 | 4:55.24 | 17213 | 39361
3 | 8:44.62 | 3:56.18 | 39362 | 57079
4 | 12:41.05 | 5:04.00 | 57080 | 79879
5 | 17:45.05 | 6:28.37 | 79880 | 109016
6 | 24:13.42 | 5:11.36 | 109017 | 132377
7 | 29:25.03 | 5:11.47 | 132378 | 155749
8 | 34:36.50 | 3:28.60 | 155750 | 171409
9 | 38:05.35 | 5:34.03 | 171410 | 196462
Track 1
Filename C:\EAC rips\01 - I.wav
Pre-gap length 0:00:02.00
Peak level 96.8 %
Extraction speed 2.0 X
Track quality 100.0 %
Test CRC 632F78C9
Copy CRC 632F78C9
Track not present in AccurateRip database
Copy OK
Track 2
Filename C:\EAC rips\02 - II.wav
Pre-gap length 0:00:05.00
Peak level 96.8 %
Extraction speed 2.4 X
Track quality 100.0 %
Test CRC A91C51A5
Copy CRC A91C51A5
Track not present in AccurateRip database
Copy OK
Track 3
Filename C:\EAC rips\03 - III.wav
Pre-gap length 0:00:05.00
Peak level 96.8 %
Extraction speed 2.6 X
Track quality 100.0 %
Test CRC EFA11BCD
Copy CRC EFA11BCD
Track not present in AccurateRip database
Copy OK
Track 4
Filename C:\EAC rips\04 - IV.wav
Pre-gap length 0:00:05.00
Peak level 96.7 %
Extraction speed 2.8 X
Track quality 100.0 %
Test CRC 9359398B
Copy CRC 9359398B
Track not present in AccurateRip database
Copy OK
Track 5
Filename C:\EAC rips\05 - V.wav
Pre-gap length 0:00:07.00
Peak level 96.8 %
Extraction speed 3.2 X
Track quality 100.0 %
Test CRC 601230DB
Copy CRC 601230DB
Track not present in AccurateRip database
Copy OK
Track 6
Filename C:\EAC rips\06 - VI.wav
Pre-gap length 0:00:08.00
Peak level 96.8 %
Extraction speed 3.4 X
Track quality 100.0 %
Test CRC 0EC58A19
Copy CRC 0EC58A19
Track not present in AccurateRip database
Copy OK
Track 7
Filename C:\EAC rips\07 - VII.wav
Pre-gap length 0:00:05.00
Peak level 96.8 %
Extraction speed 3.6 X
Track quality 100.0 %
Test CRC 691AF5D5
Copy CRC 691AF5D5
Track not present in AccurateRip database
Copy OK
Track 8
Filename C:\EAC rips\08 - VIII.wav
Pre-gap length 0:00:07.00
Peak level 96.8 %
Extraction speed 2.9 X
Track quality 99.9 %
Test CRC 5B5752C7
Copy CRC 5B5752C7
Track not present in AccurateRip database
Copy OK
Track 9
Filename C:\EAC rips\09 - IX.wav
Pre-gap length 0:00:02.00
Peak level 96.8 %
Extraction speed 3.9 X
Track quality 100.0 %
Test CRC 172AAE52
Copy CRC 172AAE52
Track not present in AccurateRip database
Copy OK
None of the tracks are present in the AccurateRip database
No errors occurred
End of status report
---- CUETools DB Plugin V2.1.4
[CTDB TOCID: X3aLYeeQ4YGm4210DbJCDM62K80-] disk not present in database
Submit result: X3aLYeeQ4YGm4210DbJCDM62K80- has been uploaded
==== Log checksum 9318F5131B2559747D16C9D14D34ECF3F930EBB5503FADDBBF0D59C0A0018403 ====
 
Содержание индексной карты (.CUE)
REM GENRE Jazz
REM DATE 2014
REM DISCID 7B0A3B09
REM COMMENT "ExactAudioCopy v1.0b3"
PERFORMER "Hugues Vincent & Yasumune Morishige"
TITLE "Fragment"
FILE "01 - I.wav" WAVE
TRACK 01 AUDIO
TITLE "I"
PERFORMER "Hugues Vincent & Yasumune Morishige"
FLAGS DCP
INDEX 01 00:00:00
TRACK 02 AUDIO
TITLE "II"
PERFORMER "Hugues Vincent & Yasumune Morishige"
FLAGS DCP
INDEX 00 03:44:38
FILE "02 - II.wav" WAVE
INDEX 01 00:00:00
TRACK 03 AUDIO
TITLE "III"
PERFORMER "Hugues Vincent & Yasumune Morishige"
FLAGS DCP
INDEX 00 04:50:24
FILE "03 - III.wav" WAVE
INDEX 01 00:00:00
TRACK 04 AUDIO
TITLE "IV"
PERFORMER "Hugues Vincent & Yasumune Morishige"
FLAGS DCP
INDEX 00 03:51:18
FILE "04 - IV.wav" WAVE
INDEX 01 00:00:00
TRACK 05 AUDIO
TITLE "V"
PERFORMER "Hugues Vincent & Yasumune Morishige"
FLAGS DCP
INDEX 00 04:57:00
FILE "05 - V.wav" WAVE
INDEX 01 00:00:00
TRACK 06 AUDIO
TITLE "VI"
PERFORMER "Hugues Vincent & Yasumune Morishige"
FLAGS DCP
INDEX 00 06:20:37
FILE "06 - VI.wav" WAVE
INDEX 01 00:00:00
TRACK 07 AUDIO
TITLE "VII"
PERFORMER "Hugues Vincent & Yasumune Morishige"
FLAGS DCP
INDEX 00 05:06:36
FILE "07 - VII.wav" WAVE
INDEX 01 00:00:00
TRACK 08 AUDIO
TITLE "VIII"
PERFORMER "Hugues Vincent & Yasumune Morishige"
FLAGS DCP
INDEX 00 05:04:47
FILE "08 - VIII.wav" WAVE
INDEX 01 00:00:00
TRACK 09 AUDIO
TITLE "IX"
PERFORMER "Hugues Vincent & Yasumune Morishige"
FLAGS DCP
INDEX 00 03:26:60
FILE "09 - IX.wav" WAVE
INDEX 01 00:00:00
По всем вопросам пишите личное сообщение пользователю M0p94ok.
05:38
178
Нет комментариев. Ваш будет первым!