Поиск

(Classic Jazz/Easy Listening/Brazilian Jazz) Jacob Do Bandolim - Os Saraus De Jacob - 1971, FLAC (image+.cue), lossless

Jacob Do Bandolim - Os Saraus De Jacob
Жанр: Classic Jazz/Easy Listening/Brazilian Jazz
Год выпуска диска: 1971
Производитель диска: RCA (Camden) - CALB 5317 - Brazil
Источник: My CD
Аудио кодек: FLAC
Тип рипа: image+.cue
Битрейт аудио: lossless
Продолжительность: 37:06
Трэклист:
01 - Brejeito (6:27)
02 - Faceira (2:21)
03 - Noites Cariocas (9:11)
04 - Os Olhos Dela (3:33) featuring Paulo Tapajos
05 - Trovas (3:03) featuring Paulo Tapajos
06 - Lagrimas (4:18) featuring Paulo Tapajos
07 - Cochicho (4:19)
08 - Murmurando (3:39)
 
Scans
 
Info
This is Jacob do Bandolim - Os Saraus de Jacob (1971), for RCA Camdem, featuring Jacob do Bandolim performing at his own place with Conjunto Epoca de Ouro with Paulo Tapajos as special guest on three tracks. Side A brings a recording taken in 16/Aug/1968, and side B two months later with Paulo Tapajos in 06/Nov/1968. Liner notes written by Herminio Bello de Carvalho bring detailed information about both sessions and the whole spirit of how these Saraus happened at Jacob do Bandolim's place.
Personnel
JACOB DO BANDOLIM
(bandolim)
CONJUNTO EPOCA DE OURO
Cesar Faria
(violao)
Damasio
(violao 7 cordas)
Jonas
(cavaquinho)
Manoel Rigaud
(percussion)
Dino 7 Cordas (Side B)
(violao 7 cordas)
 
EAC Лог
Exact Audio Copy V0.99 prebeta 5 from 4. May 2009
EAC extraction logfile from 8. March 2010, 11:45
Jacob Do Bandolim / Os Saraus De Jacob
Used drive : HL-DT-STDVDRAM GH20NS15 Adapter: 0 ID: 0
Read mode : Secure
Utilize accurate stream : Yes
Defeat audio cache : Yes
Make use of C2 pointers : No
Read offset correction : 667
Overread into Lead-In and Lead-Out : No
Fill up missing offset samples with silence : Yes
Delete leading and trailing silent blocks : No
Null samples used in CRC calculations : Yes
Used interface : Installed external ASPI interface
Used output format : User Defined Encoder
Selected bitrate : 1024 kBit/s
Quality : High
Add ID3 tag : No
Command line compressor : C:\Program Files\Exact Audio Copy\Flac\flac.exe
Additional command line options : -8 -A tukey(0.25) -A gauss(0.1875) -b 4096 -V -T "artist=%a" -T "title=%t" -T "album=%g" -T "date=%y" -T "tracknumber=%n" -T "genre=%m" %s --sector-align
TOC of the extracted CD
Track | Start | Length | Start sector | End sector
---------------------------------------------------------
1 | 0:00.00 | 6:29.65 | 0 | 29239
2 | 6:29.65 | 2:23.36 | 29240 | 40000
3 | 8:53.26 | 9:13.38 | 40001 | 81513
4 | 18:06.64 | 3:35.07 | 81514 | 97645
5 | 21:41.71 | 3:05.42 | 97646 | 111562
6 | 24:47.38 | 4:20.16 | 111563 | 131078
7 | 29:07.54 | 4:21.09 | 131079 | 150662
8 | 33:28.63 | 3:37.30 | 150663 | 166967
Range status and errors
Selected range
Filename D:\Torrents.ru\Jacob Do Bandolim\Jacob Do Bandolim - Os Saraus De Jacob\Jacob Do Bandolim - Os Saraus De Jacob.wav
Peak level 100.0 %
Range quality 99.9 %
Test CRC 1915ACF7
Copy CRC 1915ACF7
Copy OK
No errors occurred
End of status report
 
Audiochecker
AUDIOCHECKER v2.0 beta (build 457) - by Dester - opdester@freemail.hu
~~~~~~~~~~~~~~~~~~~~~~~~~~~~~~~~~~
-=== DO NOT EDIT THIS FILE! ===-
Path: ...\Jacob Do Bandolim - Os Saraus De Jacob
1 -=- Jacob Do Bandolim - Os Saraus De Jacob.flac -=- CDDA (100%)
125164340
14:43
291
Нет комментариев. Ваш будет первым!