Поиск

(Brazilian Jazz) Stan Getz and Charlie Byrd - Jazz Samba - 1962, FLAC (tracks+.cue), lossless

(Brazilian Jazz) Stan Getz and Charlie Byrd - Jazz Samba - 1962, FLAC (tracks+.cue), lossless
Треклист:
Stan Getz and Charlie Byrd - Jazz Samba (1962)
Жанр: Brazilian Jazz
Дата записи: Pierce Hall All Souls Unitarian Curch Washington, D.C., February 13, 1962
Дата выпуска оригинала: 1963 MGM Records Inc.
Дата выпуска переиздания: 2008
Производитель диска, номер, страна: © The Verve Music Group 0602517679184, EU
Аудио кодек: FLAC
Тип рипа: (tracks + .cue)
Битрейт аудио: lossless
Включает: Full artwork
Продолжительность: 35:37
Источник: Моя коллекция
Риппер: Мой рип
Трэклист:
1. Desafinado (Jobim ) - 5:51
2. Samba Dees Days (Byrd ) - 3:34
3. O Pato (Silver, Teixeira ) - 2:31
4. Samba Triste (Blance, Powell ) - 4:47
5. Samba de uma Nota So (Jobim, Mendonca ) - 6:11
6. E Luxo So (Barraso, Peixoto ) - 3:40
7. Baia (Barroso ) - 6:38
Состав:
Bass - Gene Byrd , Keter Betts
Drums - Bill Reichenbach , Buddy Deppenschmidt
Guitar - Charlie Byrd , Gene Byrd
Saxophone [Tenor] - Stan Getz
Рейтинг:
1963 The Billboard 200 # 1
1984 Jazz Samba Top Jazz Albums #22
Издания:
(LP, [33 rpm], [Gatefold], [Mono]) Verve Records V-8432 US 1962
[Transparent Orange Vinyl] [KOR] 1962
(LP, Mon) Verve Records VLP 9013 UK 1962
(Reel, Mono, 2 T) Verve Records TA-VLP 9013 UK 1962
(LP) Verve Records V6-8432 France 1963
(LP) Verve Records 2352 080 Netherlands 1963
(LP) Verve Records V6-8432 Canada 1963
(LP) Verve Records V6-8432 US 1963
(LP, Album, Gat) Polydor K.K, Verve Records MV 2089 Japan 1963
(LP, RE, Gat) Verve Records SMAS-90628 US 1966
(CD) [Alternate Cover] CTI PDCTI 1104-2 Germany 1993
(CD) [Gold Disc] DCC GZS-1069 1994
(CD, Album, Reissue, Dig, [Verve Master Edition]) Verve Records 314 521 413-2 US 1997
(CD) [Bonus Tracks], [Digipak] Verve EU 0602517036932 2006
(CD)Universal Music Brasil 2007
(CD, Album) Verve Records 810 061-2 Europe
(LP, Reissue) Verve Records 810 061-1 Europe
 
Steve Huey (AMG)
Partly because of its Brazilian collaborators and partly because of "The Girl From Ipanema," Getz/Gilberto is nearly always acknowledged as the Stan Getz bossa nova LP. But Jazz Samba is just as crucial and groundbreaking; after all, it came first, and in fact was the first full-fledged bossa nova album ever recorded by American jazz musicians. And it was just as commercially successful, topping the LP charts and producing its own pop chart hit single in "Desafinado." It was the true beginning of the bossa nova craze, and introduced several standards of the genre (including Ary Barroso's "Bahia" and Antonio Carlos Jobim's "Desafinado" and "Samba de Uma Nota Só" [aka "One Note Samba"]). But above all, Jazz Samba stands on its own artistic merit as a shimmering, graceful collection that's as subtly advanced -- in harmony and rhythm -- as it is beautiful. Getz and his co-billed partner, guitarist Charlie Byrd -- who was actually responsible for bringing bossa nova records to the U.S. and introducing Getz to the style -- have the perfect touch for bossa nova's delicate, airy texture. For his part, Byrd was one of the first American musicians to master bossa nova's difficult, bubbling syncopations, and his solos are light and lilting. Meanwhile, Getz's playing is superb, simultaneously offering a warm, full tone and a cool control of dynamics; plus, Byrd's gently off-kilter harmonies seem to stimulate Getz's melodic inventiveness even more than usual. But beyond technique, Getz intuitively understands the romanticism and the undercurrent of melancholy inherent in the music, and that's what really made Jazz Samba such a revelatory classic. Absolutely essential for any jazz collection.
 
Cue
REM GENRE Latin
REM DATE 1962
REM DISCID 5C07CB07
REM COMMENT "ExactAudioCopy v0.99pb4"
PERFORMER "Stan Getz and Charlie Byrd"
TITLE "Jazz Samba"
FILE "01 - Desafinado.wav" WAVE
TRACK 01 AUDIO
TITLE "Desafinado"
PERFORMER "Stan Getz and Charlie Byrd"
INDEX 01 00:00:00
TRACK 02 AUDIO
TITLE "Samba Dees Days"
PERFORMER "Stan Getz and Charlie Byrd"
INDEX 00 05:49:06
FILE "02 - Samba Dees Days.wav" WAVE
INDEX 01 00:00:00
TRACK 03 AUDIO
TITLE "O Pato"
PERFORMER "Stan Getz and Charlie Byrd"
INDEX 00 03:32:24
FILE "03 - O Pato.wav" WAVE
INDEX 01 00:00:00
TRACK 04 AUDIO
TITLE "Samba Triste"
PERFORMER "Stan Getz and Charlie Byrd"
INDEX 00 02:29:06
FILE "04 - Samba Triste.wav" WAVE
INDEX 01 00:00:00
TRACK 05 AUDIO
TITLE "Samba de Uma Nota So"
PERFORMER "Stan Getz and Charlie Byrd"
INDEX 00 04:43:47
FILE "05 - Samba de Uma Nota So.wav" WAVE
INDEX 01 00:00:00
TRACK 06 AUDIO
TITLE "E Luxo So"
PERFORMER "Stan Getz and Charlie Byrd"
INDEX 00 06:09:21
FILE "06 - E Luxo So.wav" WAVE
INDEX 01 00:00:00
FILE "07 - Baia.wav" WAVE
TRACK 07 AUDIO
TITLE "Baia"
PERFORMER "Stan Getz and Charlie Byrd"
INDEX 01 00:00:00
 
EAC log
Exact Audio Copy V0.99 prebeta 4 from 23. January 2008
EAC extraction logfile from 18. March 2010, 12:35
Stan Getz and Charlie Byrd / Jazz Samba
Used drive : HL-DT-STDVD-RAM GH22NP20 Adapter: 0 ID: 0
Read mode : Secure
Utilize accurate stream : Yes
Defeat audio cache : Yes
Make use of C2 pointers : No
Read offset correction : 102
Overread into Lead-In and Lead-Out : No
Fill up missing offset samples with silence : Yes
Delete leading and trailing silent blocks : No
Null samples used in CRC calculations : Yes
Used interface : Installed external ASPI interface
Gap handling : Appended to previous track
Used output format : User Defined Encoder
Selected bitrate : 320 kBit/s
Quality : High
Add ID3 tag : No
Command line compressor : C:\Program Files\Exact Audio Copy\Flac\flac.exe
Additional command line options : -V -8 -T "artist=%a" -T "title=%t" -T "album=%g" -T "date=%y" -T "tracknumber=%n" -T "genre=%m" %s
TOC of the extracted CD
Track | Start | Length | Start sector | End sector
---------------------------------------------------------
1 | 0:00.00 | 5:51.33 | 0 | 26357
2 | 5:51.33 | 3:34.55 | 26358 | 42462
3 | 9:26.13 | 2:31.67 | 42463 | 53854
4 | 11:58.05 | 4:47.31 | 53855 | 75410
5 | 16:45.36 | 6:11.37 | 75411 | 103272
6 | 22:56.73 | 3:40.37 | 103273 | 119809
7 | 26:37.35 | 6:38.20 | 119810 | 149679
Track 1
Filename D:\music\Musicgate's rips\Stan Getz and Charlie Byrd - Jazz Samba (1962)\01 - Desafinado.wav
Pre-gap length 0:00:02.00
Peak level 99.6 %
Track quality 100.0 %
Test CRC CC14BFC1
Copy CRC CC14BFC1
Accurately ripped (confidence 9) [4B52BDD6]
Copy OK
Track 2
Filename D:\music\Musicgate's rips\Stan Getz and Charlie Byrd - Jazz Samba (1962)\02 - Samba Dees Days.wav
Pre-gap length 0:00:02.36
Peak level 100.0 %
Track quality 100.0 %
Test CRC 3BF55307
Copy CRC 3BF55307
Accurately ripped (confidence 9) [881BAC1A]
Copy OK
Track 3
Filename D:\music\Musicgate's rips\Stan Getz and Charlie Byrd - Jazz Samba (1962)\03 - O Pato.wav
Pre-gap length 0:00:02.41
Peak level 99.3 %
Track quality 100.0 %
Test CRC 1C37BC0A
Copy CRC 1C37BC0A
Accurately ripped (confidence 9) [A0389220]
Copy OK
Track 4
Filename D:\music\Musicgate's rips\Stan Getz and Charlie Byrd - Jazz Samba (1962)\04 - Samba Triste.wav
Pre-gap length 0:00:02.81
Peak level 99.5 %
Track quality 100.0 %
Test CRC A5F62952
Copy CRC A5F62952
Accurately ripped (confidence 9) [ECC9D643]
Copy OK
Track 5
Filename D:\music\Musicgate's rips\Stan Getz and Charlie Byrd - Jazz Samba (1962)\05 - Samba de Uma Nota So.wav
Pre-gap length 0:00:03.78
Peak level 87.5 %
Track quality 100.0 %
Test CRC A932D25C
Copy CRC A932D25C
Accurately ripped (confidence 9) [F6498447]
Copy OK
Track 6
Filename D:\music\Musicgate's rips\Stan Getz and Charlie Byrd - Jazz Samba (1962)\06 - E Luxo So.wav
Pre-gap length 0:00:02.21
Peak level 99.4 %
Track quality 99.9 %
Test CRC A2733D4C
Copy CRC A2733D4C
Accurately ripped (confidence 9) [591C654E]
Copy OK
Track 7
Filename D:\music\Musicgate's rips\Stan Getz and Charlie Byrd - Jazz Samba (1962)\07 - Baia.wav
Peak level 99.5 %
Track quality 100.0 %
Test CRC CED6CE7E
Copy CRC CED6CE7E
Accurately ripped (confidence 9) [E628A492]
Copy OK
All tracks accurately ripped
No errors occurred
End of status report
 
Tau analyzer screenshoot
Я не сидирую все свои раздачи подолгу, только новые (до 3х первых сидов)
За своими раздачами не слежу, и старые топики не читаю - если нет сидов или раздача находится в архиве, пришлите письмо, и я вернусь
Предлагаю скачавшим максимально долго оставаться на раздаче - весь рейтинг будет ваш.
Заботьтесь о своем рейтинге - конвертируйте в мп3 и выкладывайте в соответствующем разделе
14:44
345
Нет комментариев. Ваш будет первым!