Поиск

(chamber jazz, contemporary) Gianluigi Trovesi & Gianni Coscia - Round about Offenbach / Frère Jacques (Frere Jacques) - 2011, FLAC (tracks+.cue), lossless

Gianluigi Trovesi & Gianni Coscia
Frère Jacques Round about Offenbach
Жанр: chamber jazz, contemporary
Год издания диска: 2011
Издатель (лейбл): ECM
Номер по каталогу: {ECM 2217}
Аудиокодек: FLAC (*.flac)
Тип рипа: tracks+.cue
Битрейт аудио: lossless
Продолжительность: 01:13:14
Источник (релизер): сеть
Наличие сканов в содержимом раздачи: да
Треклист:
1. Sognando Hélène / Oui! c'est un rêve
2. Ah! que les hommes sont bêtes / Mon Dieu, mon Dieu
3. Piff, paff, pouff / La Duchessa nei caraibi
4. Tangoffenbach
5. Ah! vivre deux / L'eccentrico inventore
6. Et moi? / No, tu no!
7. La voix
8. Parton le barcarole
9. Beguine del fauno
10. Sei Italiano? / No! ... Je suis Brésilien
11. La Duchessa della Czarda
12. C'est une chanson d'amour
13. Galop ... trotterellando
14. Le jugement de Paris / Ma! Non so!
15. Dedicated to Hélène and her little birds
16. Metamorfosi ... Pour séduire
17. Minuetto / Olympia
18. Ouverture / Un Americano a Troia
19. Epilogue
Gianluigi Trovesi - piccolo and alto clarinets
Gianni Coscia - accordion
 
Лог создания рипа
Exact Audio Copy V0.99 prebeta 5 from 4. May 2009
EAC extraction logfile from 24. December 2011, 20:09
Gianluigi Trovesi / Gianni Coscia / Frиre Jacques - Round about Offenbach
Used drive : TSSTcorpCD/DVDW SH-S182M Adapter: 1 ID: 1
Read mode : Secure
Utilize accurate stream : Yes
Defeat audio cache : Yes
Make use of C2 pointers : No
Read offset correction : 6
Overread into Lead-In and Lead-Out : No
Fill up missing offset samples with silence : Yes
Delete leading and trailing silent blocks : No
Null samples used in CRC calculations : Yes
Used interface : Installed external ASPI interface
Gap handling : Appended to previous track
Used output format : User Defined Encoder
Selected bitrate : 1024 kBit/s
Quality : High
Add ID3 tag : No
Command line compressor : C:\Program Files\Exact Audio Copy\Flac\flac.exe
Additional command line options : -6 -V -T "ARTIST=%a" -T "TITLE=%t" -T "ALBUM=%g" -T "DATE=%y" -T "TRACKNUMBER=%n" -T "GENRE=%m" -T "COMMENT=iv" %s
TOC of the extracted CD
Track | Start | Length | Start sector | End sector
---------------------------------------------------------
1 | 0:00.00 | 6:52.18 | 0 | 30917
2 | 6:52.18 | 2:08.28 | 30918 | 40545
3 | 9:00.46 | 3:52.07 | 40546 | 57952
4 | 12:52.53 | 4:30.72 | 57953 | 78274
5 | 17:23.50 | 4:04.04 | 78275 | 96578
6 | 21:27.54 | 2:08.51 | 96579 | 106229
7 | 23:36.30 | 3:03.53 | 106230 | 120007
8 | 26:40.08 | 3:53.34 | 120008 | 137516
9 | 30:33.42 | 2:43.29 | 137517 | 149770
10 | 33:16.71 | 6:09.24 | 149771 | 177469
11 | 39:26.20 | 2:05.27 | 177470 | 186871
12 | 41:31.47 | 1:19.42 | 186872 | 192838
13 | 42:51.14 | 7:27.64 | 192839 | 226427
14 | 50:19.03 | 5:57.55 | 226428 | 253257
15 | 56:16.58 | 5:13.18 | 253258 | 276750
16 | 61:30.01 | 4:43.02 | 276751 | 297977
17 | 66:13.03 | 2:19.16 | 297978 | 308418
18 | 68:32.19 | 4:29.61 | 308419 | 328654
19 | 73:02.05 | 1:19.55 | 328655 | 334634
Track 1
Filename G:\01 - Sognando Hйlиne , Oui! cґest un rкve.wav
Pre-gap length 0:00:02.00
Peak level 69.1 %
Track quality 100.0 %
Test CRC 0A3BC70B
Copy CRC 0A3BC70B
Track not present in AccurateRip database
Copy OK
Track 2
Filename G:\02 - Ah! que les hommes sont bкtes , Mon Dieu, mon Dieu.wav
Pre-gap length 0:00:03.25
Peak level 60.9 %
Track quality 100.0 %
Test CRC 89B757D5
Copy CRC 89B757D5
Track not present in AccurateRip database
Copy OK
Track 3
Filename G:\03 - Piff, paff, pouff , La Duchessa nei caraibi.wav
Pre-gap length 0:00:02.30
Peak level 69.0 %
Track quality 99.9 %
Test CRC 88204E57
Copy CRC 88204E57
Track not present in AccurateRip database
Copy OK
Track 4
Filename G:\04 - Tangoffenbach.wav
Pre-gap length 0:00:03.05
Peak level 69.1 %
Track quality 99.9 %
Test CRC 9EB76287
Copy CRC 9EB76287
Track not present in AccurateRip database
Copy OK
Track 5
Filename G:\05 - Ah! vivre deux , Lґeccentrico inventore.wav
Pre-gap length 0:00:01.97
Peak level 69.2 %
Track quality 99.9 %
Test CRC B5E15E82
Copy CRC B5E15E82
Track not present in AccurateRip database
Copy OK
Track 6
Filename G:\06 - Et moi , No, tu no!.wav
Pre-gap length 0:00:03.08
Peak level 69.0 %
Track quality 100.0 %
Test CRC 77368838
Copy CRC 77368838
Track not present in AccurateRip database
Copy OK
Track 7
Filename G:\07 - La voix.wav
Pre-gap length 0:00:03.72
Peak level 69.1 %
Track quality 100.0 %
Test CRC 8AE13BD9
Copy CRC 8AE13BD9
Track not present in AccurateRip database
Copy OK
Track 8
Filename G:\08 - Parton le barcarole.wav
Pre-gap length 0:00:03.73
Peak level 69.1 %
Track quality 99.9 %
Test CRC 9F42172F
Copy CRC 9F42172F
Track not present in AccurateRip database
Copy OK
Track 9
Filename G:\09 - Beguine del fauno.wav
Pre-gap length 0:00:04.14
Peak level 69.1 %
Track quality 99.9 %
Test CRC 5AC59BFE
Copy CRC 5AC59BFE
Track not present in AccurateRip database
Copy OK
Track 10
Filename G:\10 - Sei Italiano , No! ... Je suis Brйsilien.wav
Pre-gap length 0:00:03.41
Peak level 66.7 %
Track quality 100.0 %
Test CRC 879D9D61
Copy CRC 879D9D61
Track not present in AccurateRip database
Copy OK
Track 11
Filename G:\11 - La Duchessa della Czarda.wav
Pre-gap length 0:00:03.86
Peak level 69.1 %
Track quality 100.0 %
Test CRC 1419D507
Copy CRC 1419D507
Track not present in AccurateRip database
Copy OK
Track 12
Filename G:\12 - Cґest une chanson dґamour.wav
Pre-gap length 0:00:03.68
Peak level 68.4 %
Track quality 100.0 %
Test CRC D9CCF32C
Copy CRC D9CCF32C
Track not present in AccurateRip database
Copy OK
Track 13
Filename G:\13 - Galop ... trotterellando.wav
Pre-gap length 0:00:06.08
Peak level 70.2 %
Track quality 100.0 %
Test CRC D4067D58
Copy CRC D4067D58
Track not present in AccurateRip database
Copy OK
Track 14
Filename G:\14 - Le jugement de Paris , Ma! Non so!.wav
Pre-gap length 0:00:04.14
Peak level 69.1 %
Track quality 100.0 %
Test CRC 80FB736A
Copy CRC 80FB736A
Track not present in AccurateRip database
Copy OK
Track 15
Filename G:\15 - Dedicated to Hйlиne and her little birds.wav
Pre-gap length 0:00:04.41
Peak level 69.1 %
Track quality 100.0 %
Test CRC 3CEC46C0
Copy CRC 3CEC46C0
Track not present in AccurateRip database
Copy OK
Track 16
Filename G:\16 - Metamorfosi ... Pour sйduire.wav
Pre-gap length 0:00:02.70
Peak level 68.4 %
Track quality 100.0 %
Test CRC 15E3432A
Copy CRC 15E3432A
Track not present in AccurateRip database
Copy OK
Track 17
Filename G:\17 - Minuetto , Olympia.wav
Pre-gap length 0:00:04.50
Peak level 69.1 %
Track quality 100.0 %
Test CRC 429695C8
Copy CRC 429695C8
Track not present in AccurateRip database
Copy OK
Track 18
Filename G:\18 - Ouverture , Un Americano a Troia.wav
Pre-gap length 0:00:03.88
Peak level 70.0 %
Track quality 100.0 %
Test CRC CCAC95E3
Copy CRC CCAC95E3
Track not present in AccurateRip database
Copy OK
Track 19
Filename G:\19 - Epilogue.wav
Pre-gap length 0:00:05.42
Peak level 52.4 %
Track quality 100.0 %
Test CRC 982F44BD
Copy CRC 982F44BD
Track not present in AccurateRip database
Copy OK
None of the tracks are present in the AccurateRip database
No errors occurred
End of status report
 
Содержание индексной карты (.CUE)
REM GENRE "ECM 2217"
REM DATE 2011
REM DISCID 24116D13
REM COMMENT "ExactAudioCopy v0.99pb5"
PERFORMER "Gianluigi Trovesi / Gianni Coscia"
TITLE "Frиre Jacques - Round about Offenbach"
FILE "01 - Sognando Helene , Oui! c'est un reve.wav" WAVE
TRACK 01 AUDIO
TITLE "Sognando Hйlиne / Oui! cґest un rкve"
PERFORMER "Gianluigi Trovesi / Gianni Coscia"
INDEX 01 00:00:00
TRACK 02 AUDIO
TITLE "Ah! que les hommes sont bкtes / Mon Dieu, mon Dieu"
PERFORMER "Gianluigi Trovesi / Gianni Coscia"
INDEX 00 06:48:74
FILE "02 - Ah! que les hommes sont betes , Mon Dieu, mon Dieu.wav" WAVE
INDEX 01 00:00:00
TRACK 03 AUDIO
TITLE "Piff, paff, pouff / La Duchessa nei caraibi"
PERFORMER "Gianluigi Trovesi / Gianni Coscia"
INDEX 00 02:06:05
FILE "03 - Piff, paff, pouff , La Duchessa nei caraibi.wav" WAVE
INDEX 01 00:00:00
TRACK 04 AUDIO
TITLE "Tangoffenbach"
PERFORMER "Gianluigi Trovesi / Gianni Coscia"
INDEX 00 03:49:03
FILE "04 - Tangoffenbach.wav" WAVE
INDEX 01 00:00:00
TRACK 05 AUDIO
TITLE "Ah! vivre deux / Lґeccentrico inventore"
PERFORMER "Gianluigi Trovesi / Gianni Coscia"
INDEX 00 04:28:74
FILE "05 - Ah! vivre deux , L'eccentrico inventore.wav" WAVE
INDEX 01 00:00:00
TRACK 06 AUDIO
TITLE "Et moi? / No, tu no!"
PERFORMER "Gianluigi Trovesi / Gianni Coscia"
INDEX 00 04:00:73
FILE "06 - Et moi , No, tu no!.wav" WAVE
INDEX 01 00:00:00
TRACK 07 AUDIO
TITLE "La voix"
PERFORMER "Gianluigi Trovesi / Gianni Coscia"
INDEX 00 02:04:72
FILE "07 - La voix.wav" WAVE
INDEX 01 00:00:00
TRACK 08 AUDIO
TITLE "Parton le barcarole"
PERFORMER "Gianluigi Trovesi / Gianni Coscia"
INDEX 00 02:59:73
FILE "08 - Parton le barcarole.wav" WAVE
INDEX 01 00:00:00
TRACK 09 AUDIO
TITLE "Beguine del fauno"
PERFORMER "Gianluigi Trovesi / Gianni Coscia"
INDEX 00 03:49:23
FILE "09 - Beguine del fauno.wav" WAVE
INDEX 01 00:00:00
TRACK 10 AUDIO
TITLE "Sei Italiano? / No! ... Je suis Brйsilien"
PERFORMER "Gianluigi Trovesi / Gianni Coscia"
INDEX 00 02:39:73
FILE "10 - Sei Italiano , No! ... Je suis Bresilien.wav" WAVE
INDEX 01 00:00:00
TRACK 11 AUDIO
TITLE "La Duchessa della Czarda"
PERFORMER "Gianluigi Trovesi / Gianni Coscia"
INDEX 00 06:05:34
FILE "11 - La Duchessa della Czarda.wav" WAVE
INDEX 01 00:00:00
TRACK 12 AUDIO
TITLE "Cґest une chanson dґamour"
PERFORMER "Gianluigi Trovesi / Gianni Coscia"
INDEX 00 02:01:51
FILE "12 - C'est une chanson d'amour.wav" WAVE
INDEX 01 00:00:00
TRACK 13 AUDIO
TITLE "Galop ... trotterellando"
PERFORMER "Gianluigi Trovesi / Gianni Coscia"
INDEX 00 01:13:36
FILE "13 - Galop ... trotterellando.wav" WAVE
INDEX 01 00:00:00
TRACK 14 AUDIO
TITLE "Le jugement de Paris / Ma! Non so!"
PERFORMER "Gianluigi Trovesi / Gianni Coscia"
INDEX 00 07:23:53
FILE "14 - Le jugement de Paris , Ma! Non so!.wav" WAVE
INDEX 01 00:00:00
TRACK 15 AUDIO
TITLE "Dedicated to Hйlиne and her little birds"
PERFORMER "Gianluigi Trovesi / Gianni Coscia"
INDEX 00 05:53:24
FILE "15 - Dedicated to Helene and her little birds.wav" WAVE
INDEX 01 00:00:00
TRACK 16 AUDIO
TITLE "Metamorfosi ... Pour sйduire"
PERFORMER "Gianluigi Trovesi / Gianni Coscia"
INDEX 00 05:10:40
FILE "16 - Metamorfosi ... Pour seduire.wav" WAVE
INDEX 01 00:00:00
TRACK 17 AUDIO
TITLE "Minuetto / Olympia"
PERFORMER "Gianluigi Trovesi / Gianni Coscia"
INDEX 00 04:38:39
FILE "17 - Minuetto , Olympia.wav" WAVE
INDEX 01 00:00:00
TRACK 18 AUDIO
TITLE "Ouverture / Un Americano a Troia"
PERFORMER "Gianluigi Trovesi / Gianni Coscia"
INDEX 00 02:15:25
FILE "18 - Ouverture , Un Americano a Troia.wav" WAVE
INDEX 01 00:00:00
TRACK 19 AUDIO
TITLE "Epilogue"
PERFORMER "Gianluigi Trovesi / Gianni Coscia"
INDEX 00 04:24:29
FILE "19 - Epilogue.wav" WAVE
INDEX 01 00:00:00
 
Об альбоме (сборнике)
The indefatigable Italian duo, having wrestled with Kurt Weill (“Round About Weill”) and with Milanese composer Fiorenzo Carpi (“In cerca di cibo”), now turns its attention to another spiritual soul-brother, Jacques Offenbach. The French composer of German origin (born in Cologne in 1819) wrote some of the most playful and sparkling music of the 19th century, ingenious music that could be beautiful and highly satirical by turns, always meticulously crafted. Unconcerned whether his work was regarded as high art, unafraid of frivolity, cheerfully parodying Wagner and other cultural icons – how could Offenbach not be a hero for Trovesi and Coscia??
01:33
275
Нет комментариев. Ваш будет первым!