Поиск

(bossa nova, mpb, world.music) Di Melo: Di Melo - 1975, 2004, FLAC (tracks+.cue), lossless

(bossa nova, mpb, world.music) Di Melo: Di Melo - 1975, 2004, FLAC (tracks+.cue), lossless
Треклист:
Di Melo: Di Melo (1975)
Жанр: bossa nova, mpb, world.music
Год издания диска: 2004
Издатель (лейбл): EMI
Номер по каталогу: 724347311222
Аудиокодек: FLAC (*.flac)
Тип рипа: tracks+.cue
Битрейт аудио: lossless
Продолжительность: 00:33:58
Источник (релизер): What.cd, коллега pcscarpa
Наличие сканов в содержимом раздачи: нет
Треклист:
01. Kilariô (2:48)
02. A vida em seus métodos diz calma (3:42)
03. Aceito tudo (2:57)
04. Conformópolis (2:43)
05. Má-lida (3:30)
06. Sementes (1:34)
07. Pernalonga (2:44)
08. Minha Estrela (2:30)
09. Se o mundo acabasse em mel (3:07)
10. Alma gêmea (3:58)
11. João (2:27)
12. Indecisão (1:58)
 
Лог создания рипа
Exact Audio Copy V0.99 prebeta 5 from 4. May 2009
EAC extraction logfile from 27. November 2010, 19:26
Di Melo / Di Melo
Used drive : SlimtypeDVD A DS8A4S Adapter: 1 ID: 0
Read mode : Secure
Utilize accurate stream : Yes
Defeat audio cache : Yes
Make use of C2 pointers : No
Read offset correction : 6
Overread into Lead-In and Lead-Out : No
Fill up missing offset samples with silence : Yes
Delete leading and trailing silent blocks : No
Null samples used in CRC calculations : No
Used interface : Installed external ASPI interface
Gap handling : Appended to previous track
Used output format : User Defined Encoder
Selected bitrate : 320 kBit/s
Quality : High
Add ID3 tag : No
Command line compressor : C:\Program Files\Exact Audio Copy\FLAC\FLAC.EXE
Additional command line options : -V -8 -T "artist=%a" -T "title=%t" -T "album=%g" -T "date=%y" -T "tracknumber=%n" -T "genre=%m" %s
TOC of the extracted CD
Track | Start | Length | Start sector | End sector
---------------------------------------------------------
1 | 0:00.00 | 2:47.40 | 0 | 12564
2 | 2:47.40 | 3:42.07 | 12565 | 29221
3 | 6:29.47 | 2:57.20 | 29222 | 42516
4 | 9:26.67 | 2:43.30 | 42517 | 54771
5 | 12:10.22 | 3:29.38 | 54772 | 70484
6 | 15:39.60 | 1:33.52 | 70485 | 77511
7 | 17:13.37 | 2:43.73 | 77512 | 89809
8 | 19:57.35 | 2:30.10 | 89810 | 101069
9 | 22:27.45 | 3:06.60 | 101070 | 115079
10 | 25:34.30 | 3:58.12 | 115080 | 132941
11 | 29:32.42 | 2:27.15 | 132942 | 143981
12 | 31:59.57 | 1:58.30 | 143982 | 152861
Track 1
Filename Z:\home\pcscarpa\Music\01. Kilariф.wav
Pre-gap length 0:00:02.00
Peak level 100.0 %
Track quality 100.0 %
Test CRC B2CC38FF
Copy CRC B2CC38FF
Accurately ripped (confidence 2) [8772B7D7]
Copy OK
Track 2
Filename Z:\home\pcscarpa\Music\02. A vida em seus mйtodos diz calma.wav
Peak level 100.0 %
Track quality 100.0 %
Test CRC 43BBD352
Copy CRC 43BBD352
Accurately ripped (confidence 2) [2BA0D065]
Copy OK
Track 3
Filename Z:\home\pcscarpa\Music\03. Aceito tudo.wav
Peak level 100.0 %
Track quality 100.0 %
Test CRC 3741EE32
Copy CRC 3741EE32
Accurately ripped (confidence 2) [75E7A93B]
Copy OK
Track 4
Filename Z:\home\pcscarpa\Music\04. Conformуpolis.wav
Peak level 97.1 %
Track quality 100.0 %
Test CRC FDE751C5
Copy CRC FDE751C5
Accurately ripped (confidence 2) [97B4AC91]
Copy OK
Track 5
Filename Z:\home\pcscarpa\Music\05. Mб-lida.wav
Peak level 100.0 %
Track quality 100.0 %
Test CRC 9454F990
Copy CRC 9454F990
Accurately ripped (confidence 2) [06E8952B]
Copy OK
Track 6
Filename Z:\home\pcscarpa\Music\06. Sementes.wav
Peak level 98.2 %
Track quality 100.0 %
Test CRC 65FE3643
Copy CRC 65FE3643
Accurately ripped (confidence 2) [BFE1A7AE]
Copy OK
Track 7
Filename Z:\home\pcscarpa\Music\07. Pernalonga.wav
Peak level 100.0 %
Track quality 100.0 %
Test CRC E7E5C38F
Copy CRC E7E5C38F
Accurately ripped (confidence 2) [66FEB6E8]
Copy OK
Track 8
Filename Z:\home\pcscarpa\Music\08. Minha Estrela.wav
Peak level 100.0 %
Track quality 100.0 %
Test CRC 9D1CB72E
Copy CRC 9D1CB72E
Accurately ripped (confidence 2) [B6437D8E]
Copy OK
Track 9
Filename Z:\home\pcscarpa\Music\09. Se o mundo acabasse em mel.wav
Peak level 100.0 %
Track quality 100.0 %
Test CRC D48003D5
Copy CRC D48003D5
Accurately ripped (confidence 2) [B5164BF2]
Copy OK
Track 10
Filename Z:\home\pcscarpa\Music\10. Alma gкmea.wav
Peak level 100.0 %
Track quality 100.0 %
Test CRC 23F10D83
Copy CRC 23F10D83
Accurately ripped (confidence 2) [AC63D879]
Copy OK
Track 11
Filename Z:\home\pcscarpa\Music\11. Joгo.wav
Peak level 100.0 %
Track quality 100.0 %
Test CRC AC52EAEB
Copy CRC AC52EAEB
Accurately ripped (confidence 2) [50FC9683]
Copy OK
Track 12
Filename Z:\home\pcscarpa\Music\12. Indecisгo.wav
Peak level 94.6 %
Track quality 100.0 %
Test CRC A097CB03
Copy CRC A097CB03
Accurately ripped (confidence 2) [008B64F6]
Copy OK
All tracks accurately ripped
No errors occurred
End of status report
 
Содержание индексной карты (.CUE)
REM GENRE Funk
REM DATE 1975
REM DISCID A907F60C
REM COMMENT "ExactAudioCopy v0.99pb5"
PERFORMER "Di Melo"
TITLE "Di Melo"
FILE "01. Kilario.wav" WAVE
TRACK 01 AUDIO
TITLE "Kilario"
PERFORMER "Di Melo"
INDEX 01 00:00:00
FILE "02. A vida em seus metodos diz calma.wav" WAVE
TRACK 02 AUDIO
TITLE "A vida em seus metodos diz calma"
PERFORMER "Di Melo"
INDEX 01 00:00:00
FILE "03. Aceito tudo.wav" WAVE
TRACK 03 AUDIO
TITLE "Aceito tudo"
PERFORMER "Di Melo"
INDEX 01 00:00:00
FILE "04. Conformopolis.wav" WAVE
TRACK 04 AUDIO
TITLE "Conformopolis"
PERFORMER "Di Melo"
INDEX 01 00:00:00
FILE "05. Ma-lida.wav" WAVE
TRACK 05 AUDIO
TITLE "Ma-lida"
PERFORMER "Di Melo"
INDEX 01 00:00:00
FILE "06. Sementes.wav" WAVE
TRACK 06 AUDIO
TITLE "Sementes"
PERFORMER "Di Melo"
INDEX 01 00:00:00
FILE "07. Pernalonga.wav" WAVE
TRACK 07 AUDIO
TITLE "Pernalonga"
PERFORMER "Di Melo"
INDEX 01 00:00:00
FILE "08. Minha Estrela.wav" WAVE
TRACK 08 AUDIO
TITLE "Minha Estrela"
PERFORMER "Di Melo"
INDEX 01 00:00:00
FILE "09. Se o mundo acabasse em mel.wav" WAVE
TRACK 09 AUDIO
TITLE "Se o mundo acabasse em mel"
PERFORMER "Di Melo"
INDEX 01 00:00:00
FILE "10. Alma gemea.wav" WAVE
TRACK 10 AUDIO
TITLE "Alma gemea"
PERFORMER "Di Melo"
INDEX 01 00:00:00
FILE "11. Joao.wav" WAVE
TRACK 11 AUDIO
TITLE "Joao"
PERFORMER "Di Melo"
INDEX 01 00:00:00
FILE "12. Indecisao.wav" WAVE
TRACK 12 AUDIO
TITLE "Indecisao"
PERFORMER "Di Melo"
INDEX 01 00:00:00
00:34
345
Нет комментариев. Ваш будет первым!