Вы используете незарегистрированную версию компонента "Вкладки"!

Поиск

(Cabaret Punk/Indie/Psychedelic) Barbez - Insignificance - 2005, FLAC (image+.cue), lossless

(Cabaret Punk/Indie/Psychedelic) Barbez - Insignificance - 2005, FLAC (image+.cue), lossless
Треклист:
Barbez / Insignificance
Жанр: Cabaret Punk/Indie/Psychedelic
Год издания диска: 2005
Страна: USA
Аудиокодек: FLAC (*.flac)
Тип рипа: image+.cue
Битрейт аудио: lossless
Продолжительность: 55:20
Источник (релизер): свой диск
Наличие сканов в содержимом раздачи: нет
Треклист:
01. As for the Little Gray Rabbit (1:33)
02. Strange (6:59)
03. Fear of Commitment (3:24)
04. Song of the Moldau (4:44)
05. A Melancholy Picnic (4:11)
06. Insignificance (4:57)
07. The Sea Spread Wide (4:27)
08. Pain (10:59)
09. The Portrait (4:15)
10. Like Snowflakes, Some Sort of Red (5:34)
11. Gnossienne #3 (4:15)
 
Лог создания рипа
Exact Audio Copy V1.0 beta 3 from 29. August 2011
Отчёт EAC об извлечении, выполненном 30. ноября 2011, 16:38
Barbez / Insignificance
Дисковод: TSSTcorpCDDVDW TS-L633F Adapter: 0 ID: 1
Режим чтения : Достоверность
Использование точного потока : Да
Отключение кэша аудио : Да
Использование указателей C2 : Нет
Коррекция смещения при чтении : 6
Способность читать области Lead-in и Lead-out : Нет
Заполнение пропущенных сэмплов тишиной : Да
Удаление блоков с тишиной в начале и конце : Нет
При вычислениях CRC использовались нулевые сэмплы : Да
Интерфейс : Встроенный Win32-интерфейс для Win NT/2000
Обработка зазоров : Добавлено к предыдущему треку
Выходной формат : Пользовательский кодировщик
Выбранный битрейт : 896 kBit/s
Качество : Высокий
Добавление ID3-тега : Нет
Утилита сжатия : C:\audio\treatment\Exact Audio Copy\FLAC\FLAC.EXE
Дополнительные параметры : -V -8 -T "Genre=%genre%" -T "Artist=%artist%" -T "Title=%title%" -T "Album=%albumtitle%" -T "Date=%year%" -T "Tracknumber=%tracknr%" -T "Comment=%comment%" %source%
TOC извлечённого CD
Трек | Старт | Длительность | Начальный сектор | Конечный сектор
---------------------------------------------------------------------
1 | 0:00.00 | 1:33.22 | 0 | 6996
2 | 1:33.22 | 6:58.65 | 6997 | 38411
3 | 8:32.12 | 3:24.15 | 38412 | 53726
4 | 11:56.27 | 4:44.36 | 53727 | 75062
5 | 16:40.63 | 4:11.19 | 75063 | 93906
6 | 20:52.07 | 4:56.63 | 93907 | 116169
7 | 25:48.70 | 4:26.69 | 116170 | 136188
8 | 30:15.64 | 10:58.62 | 136189 | 185600
9 | 41:14.51 | 4:14.72 | 185601 | 204722
10 | 45:29.48 | 5:34.16 | 204723 | 229788
11 | 51:03.64 | 4:15.27 | 229789 | 248940
Трек 1
Имя файла C:\audio\barbez - insignificance\01. As for the Little Gray Rabbit.wav
Длина предзазора 0:00:02.00
Пиковый уровень 99.9 %
Скорость извлечения 0.8 X
Качество трека 99.8 %
CRC теста 53F9BDCB
CRC копии 53F9BDCB
Копирование... OK
Трек 2
Имя файла C:\audio\barbez - insignificance\02. Strange.wav
Длина предзазора 0:00:01.41
Пиковый уровень 100.0 %
Скорость извлечения 2.0 X
Качество трека 100.0 %
CRC теста E11E6477
CRC копии E11E6477
Копирование... OK
Трек 3
Имя файла C:\audio\barbez - insignificance\03. Fear of Commitment.wav
Длина предзазора 0:00:03.17
Пиковый уровень 99.9 %
Скорость извлечения 1.5 X
Качество трека 99.9 %
CRC теста F08B477D
CRC копии F08B477D
Копирование... OK
Трек 4
Имя файла C:\audio\barbez - insignificance\04. Song of the Moldau.wav
Длина предзазора 0:00:01.46
Пиковый уровень 99.9 %
Скорость извлечения 2.3 X
Качество трека 100.0 %
CRC теста 2B77F84C
CRC копии 2B77F84C
Копирование... OK
Трек 5
Имя файла C:\audio\barbez - insignificance\05. A Melancholy Picnic.wav
Длина предзазора 0:00:00.44
Пиковый уровень 96.8 %
Скорость извлечения 2.4 X
Качество трека 100.0 %
CRC теста 2C8B3B7E
CRC копии 2C8B3B7E
Копирование... OK
Трек 6
Имя файла C:\audio\barbez - insignificance\06. Insignificance.wav
Длина предзазора 0:00:00.45
Пиковый уровень 99.9 %
Скорость извлечения 2.6 X
Качество трека 100.0 %
CRC теста C83CAED6
CRC копии C83CAED6
Копирование... OK
Трек 7
Имя файла C:\audio\barbez - insignificance\07. The Sea Spread Wide.wav
Длина предзазора 0:00:01.51
Пиковый уровень 99.9 %
Скорость извлечения 2.1 X
Качество трека 99.9 %
CRC теста FFA6A0F1
CRC копии FFA6A0F1
Копирование... OK
Трек 8
Имя файла C:\audio\barbez - insignificance\08. Pain.wav
Длина предзазора 0:00:03.18
Пиковый уровень 99.9 %
Скорость извлечения 3.2 X
Качество трека 100.0 %
CRC теста E5B56A62
CRC копии E5B56A62
Копирование... OK
Трек 9
Имя файла C:\audio\barbez - insignificance\09. The Portrait.wav
Длина предзазора 0:00:01.42
Пиковый уровень 99.9 %
Скорость извлечения 2.4 X
Качество трека 99.9 %
CRC теста 1274D7CC
CRC копии 1274D7CC
Копирование... OK
Трек 10
Имя файла C:\audio\barbez - insignificance\10. Like Snowflakes, Some Sort of Red.wav
Длина предзазора 0:00:01.37
Пиковый уровень 99.9 %
Скорость извлечения 3.4 X
Качество трека 100.0 %
CRC теста ADD4CA6F
CRC копии ADD4CA6F
Копирование... OK
Трек 11
Имя файла C:\audio\barbez - insignificance\11. Gnossienne #3.wav
Длина предзазора 0:00:02.57
Пиковый уровень 91.1 %
Скорость извлечения 3.4 X
Качество трека 100.0 %
CRC теста B94C2409
CRC копии B94C2409
Копирование... OK
Ошибок не произошло
Конец отчёта
==== Контрольная сумма отчёта 92F4A752646D13F343CA5E26D506B80EBF14284690CFD567F1B22E091E2DF472 ====
 
Содержание индексной карты (.CUE)
REM DATE 2005
REM DISCID 830CF70B
REM COMMENT "ExactAudioCopy v1.0b3"
PERFORMER "Barbez"
TITLE "Insignificance"
FILE "01. As for the Little Gray Rabbit.wav" WAVE
TRACK 01 AUDIO
TITLE "As for the Little Gray Rabbit"
PERFORMER "Barbez"
INDEX 01 00:00:00
TRACK 02 AUDIO
TITLE "Strange"
PERFORMER "Barbez"
INDEX 00 01:31:56
FILE "02. Strange.wav" WAVE
INDEX 01 00:00:00
TRACK 03 AUDIO
TITLE "Fear of Commitment"
PERFORMER "Barbez"
INDEX 00 06:55:48
FILE "03. Fear of Commitment.wav" WAVE
INDEX 01 00:00:00
TRACK 04 AUDIO
TITLE "Song of the Moldau"
PERFORMER "Barbez"
INDEX 00 03:22:44
FILE "04. Song of the Moldau.wav" WAVE
INDEX 01 00:00:00
TRACK 05 AUDIO
TITLE "A Melancholy Picnic"
PERFORMER "Barbez"
INDEX 00 04:43:67
FILE "05. A Melancholy Picnic.wav" WAVE
INDEX 01 00:00:00
TRACK 06 AUDIO
TITLE "Insignificance"
PERFORMER "Barbez"
INDEX 00 04:10:49
FILE "06. Insignificance.wav" WAVE
INDEX 01 00:00:00
TRACK 07 AUDIO
TITLE "The Sea Spread Wide"
PERFORMER "Barbez"
INDEX 00 04:55:12
FILE "07. The Sea Spread Wide.wav" WAVE
INDEX 01 00:00:00
TRACK 08 AUDIO
TITLE "Pain"
PERFORMER "Barbez"
INDEX 00 04:23:51
FILE "08. Pain.wav" WAVE
INDEX 01 00:00:00
TRACK 09 AUDIO
TITLE "The Portrait"
PERFORMER "Barbez"
INDEX 00 10:57:20
FILE "09. The Portrait.wav" WAVE
INDEX 01 00:00:00
TRACK 10 AUDIO
TITLE "Like Snowflakes, Some Sort of Red"
PERFORMER "Barbez"
INDEX 00 04:13:35
FILE "10. Like Snowflakes, Some Sort of Red.wav" WAVE
INDEX 01 00:00:00
TRACK 11 AUDIO
TITLE "Gnossienne #3"
PERFORMER "Barbez"
INDEX 00 05:31:34
FILE "11. Gnossienne #3.wav" WAVE
INDEX 01 00:00:00
Доп. информация:
альбом Barbez 2004 года: http://rutracker.org/forum/viewtopic.php?t=3841651
Any questions -> support@pro-jazz.com. По всем вопросам пишите -> support@pro-jazz.com
18:59
171
Нет комментариев. Ваш будет первым!