Вы используете незарегистрированную версию компонента "Вкладки"!

Поиск

(Cabaret Punk/Indie/Psychedelic) Barbez - Barbez - 2004, FLAC (tracks+.cue), lossless

(Cabaret Punk/Indie/Psychedelic) Barbez - Barbez - 2004, FLAC (tracks+.cue), lossless
Треклист:
Barbez / Barbez
Жанр: Cabaret Punk/Indie/Psychedelic
Год издания диска: 2004
Страна: USA
Аудиокодек: FLAC (*.flac)
Тип рипа: tracks+.cue
Битрейт аудио: lossless
Продолжительность: 52:26
Источник (релизер): свой диск
Наличие сканов в содержимом раздачи: нет
Треклист:
01. Sacrifice Poles (3:27)
02. The Defiant Bicycle (4:14)
03. Wisconsin (4:12)
04. Tango Ballade (4:34)
05. Pirate Jenny (4:14)
06. See the Insect (3:21)
07. The Relationship Between Man and Bird (3:56)
08. Persephone Rising (2:56)
09. The Red Urchins (4:58)
10. The Ultimate Disaster (6:22)
11. Beauty (2:49)
12. West Rogers Park (7:24)
 
Лог создания рипа
Exact Audio Copy V1.0 beta 3 from 29. August 2011
Отчёт EAC об извлечении, выполненном 30. ноября 2011, 14:34
Barbez / Barbez
Дисковод: TSSTcorpCDDVDW TS-L633F Adapter: 0 ID: 1
Режим чтения : Достоверность
Использование точного потока : Да
Отключение кэша аудио : Да
Использование указателей C2 : Нет
Коррекция смещения при чтении : 6
Способность читать области Lead-in и Lead-out : Нет
Заполнение пропущенных сэмплов тишиной : Да
Удаление блоков с тишиной в начале и конце : Нет
При вычислениях CRC использовались нулевые сэмплы : Да
Интерфейс : Встроенный Win32-интерфейс для Win NT/2000
Обработка зазоров : Добавлено к предыдущему треку
Выходной формат : Пользовательский кодировщик
Выбранный битрейт : 896 kBit/s
Качество : Высокий
Добавление ID3-тега : Нет
Утилита сжатия : C:\audio\treatment\Exact Audio Copy\FLAC\FLAC.EXE
Дополнительные параметры : -V -8 -T "Genre=%genre%" -T "Artist=%artist%" -T "Title=%title%" -T "Album=%albumtitle%" -T "Date=%year%" -T "Tracknumber=%tracknr%" -T "Comment=%comment%" %source%
TOC извлечённого CD
Трек | Старт | Длительность | Начальный сектор | Конечный сектор
---------------------------------------------------------------------
1 | 0:00.00 | 3:26.73 | 0 | 15522
2 | 3:26.73 | 4:14.10 | 15523 | 34582
3 | 7:41.08 | 4:11.50 | 34583 | 53457
4 | 11:52.58 | 4:34.18 | 53458 | 74025
5 | 16:27.01 | 4:14.19 | 74026 | 93094
6 | 20:41.20 | 3:20.39 | 93095 | 108133
7 | 24:01.59 | 3:56.08 | 108134 | 125841
8 | 27:57.67 | 2:55.51 | 125842 | 139017
9 | 30:53.43 | 4:57.38 | 139018 | 161330
10 | 35:51.06 | 6:21.52 | 161331 | 189957
11 | 42:12.58 | 2:48.56 | 189958 | 202613
12 | 45:01.39 | 7:24.07 | 202614 | 235920
Трек 1
Имя файла C:\audio\barbez\01. Sacrifice Poles.wav
Длина предзазора 0:00:02.00
Пиковый уровень 98.8 %
Скорость извлечения 1.0 X
Качество трека 100.0 %
CRC теста 37CEE051
CRC копии 37CEE051
Копирование... OK
Трек 2
Имя файла C:\audio\barbez\02. The Defiant Bicycle.wav
Длина предзазора 0:00:01.10
Пиковый уровень 98.9 %
Скорость извлечения 1.2 X
Качество трека 100.0 %
CRC теста 8123ED99
CRC копии 8123ED99
Копирование... OK
Трек 3
Имя файла C:\audio\barbez\03. Wisconsin.wav
Длина предзазора 0:00:02.56
Пиковый уровень 98.8 %
Скорость извлечения 1.1 X
Качество трека 99.9 %
CRC теста 669D25A6
CRC копии 669D25A6
Копирование... OK
Трек 4
Имя файла C:\audio\barbez\04. Tango Ballade.wav
Пиковый уровень 98.8 %
Скорость извлечения 1.1 X
Качество трека 99.9 %
CRC теста 9C54B978
CRC копии 9C54B978
Копирование... OK
Трек 5
Имя файла C:\audio\barbez\05. Pirate Jenny.wav
Длина предзазора 0:00:02.11
Пиковый уровень 98.5 %
Скорость извлечения 1.5 X
Качество трека 100.0 %
CRC теста D7893B68
CRC копии D7893B68
Копирование... OK
Трек 6
Имя файла C:\audio\barbez\06. See the Insect.wav
Длина предзазора 0:00:00.13
Пиковый уровень 98.8 %
Скорость извлечения 1.1 X
Качество трека 99.9 %
CRC теста 759E41A0
CRC копии 759E41A0
Копирование... OK
Трек 7
Имя файла C:\audio\barbez\07. The Relationship Between Man and Bird.wav
Длина предзазора 0:00:02.65
Пиковый уровень 98.8 %
Скорость извлечения 1.6 X
Качество трека 100.0 %
CRC теста 455800EE
CRC копии 455800EE
Копирование... OK
Трек 8
Имя файла C:\audio\barbez\08. Persephone Rising.wav
Длина предзазора 0:00:00.61
Пиковый уровень 98.8 %
Скорость извлечения 1.6 X
Качество трека 100.0 %
CRC теста AA61B487
CRC копии AA61B487
Копирование... OK
Трек 9
Имя файла C:\audio\barbez\09. The Red Urchins.wav
Пиковый уровень 97.9 %
Скорость извлечения 1.8 X
Качество трека 100.0 %
CRC теста F6ED5252
CRC копии F6ED5252
Копирование... OK
Трек 10
Имя файла C:\audio\barbez\10. The Ultimate Disaster.wav
Длина предзазора 0:00:01.25
Пиковый уровень 98.8 %
Скорость извлечения 2.0 X
Качество трека 100.0 %
CRC теста FFCA4D09
CRC копии FFCA4D09
Копирование... OK
Трек 11
Имя файла C:\audio\barbez\11. Beauty.wav
Длина предзазора 0:00:01.61
Пиковый уровень 98.4 %
Скорость извлечения 1.8 X
Качество трека 100.0 %
CRC теста FEBA2DB3
CRC копии FEBA2DB3
Копирование... OK
Трек 12
Имя файла C:\audio\barbez\12. West Rogers Park.wav
Пиковый уровень 97.9 %
Скорость извлечения 2.2 X
Качество трека 100.0 %
CRC теста 3FC816A1
CRC копии 3FC816A1
Копирование... OK
Ошибок не произошло
Конец отчёта
==== Контрольная сумма отчёта FEE6D3C2D634A9B817C27835021338BD6633FA8C3E2B70F7A016E411015DA845 ====
 
Содержание индексной карты (.CUE)
REM DATE 2004
REM DISCID A40C490C
REM COMMENT "ExactAudioCopy v1.0b3"
PERFORMER "Barbez"
TITLE "Barbez"
FILE "01. Sacrifice Poles.wav" WAVE
TRACK 01 AUDIO
TITLE "Sacrifice Poles"
PERFORMER "Barbez"
INDEX 01 00:00:00
TRACK 02 AUDIO
TITLE "The Defiant Bicycle"
PERFORMER "Barbez"
INDEX 00 03:25:63
FILE "02. The Defiant Bicycle.wav" WAVE
INDEX 01 00:00:00
TRACK 03 AUDIO
TITLE "Wisconsin"
PERFORMER "Barbez"
INDEX 00 04:11:29
FILE "03. Wisconsin.wav" WAVE
INDEX 01 00:00:00
FILE "04. Tango Ballade.wav" WAVE
TRACK 04 AUDIO
TITLE "Tango Ballade"
PERFORMER "Barbez"
INDEX 01 00:00:00
TRACK 05 AUDIO
TITLE "Pirate Jenny"
PERFORMER "Barbez"
INDEX 00 04:32:07
FILE "05. Pirate Jenny.wav" WAVE
INDEX 01 00:00:00
TRACK 06 AUDIO
TITLE "See the Insect"
PERFORMER "Barbez"
INDEX 00 04:14:06
FILE "06. See the Insect.wav" WAVE
INDEX 01 00:00:00
TRACK 07 AUDIO
TITLE "The Relationship Between Man and Bird"
PERFORMER "Barbez"
INDEX 00 03:17:49
FILE "07. The Relationship Between Man and Bird.wav" WAVE
INDEX 01 00:00:00
TRACK 08 AUDIO
TITLE "Persephone Rising"
PERFORMER "Barbez"
INDEX 00 03:55:22
FILE "08. Persephone Rising.wav" WAVE
INDEX 01 00:00:00
FILE "09. The Red Urchins.wav" WAVE
TRACK 09 AUDIO
TITLE "The Red Urchins"
PERFORMER "Barbez"
INDEX 01 00:00:00
TRACK 10 AUDIO
TITLE "The Ultimate Disaster"
PERFORMER "Barbez"
INDEX 00 04:56:13
FILE "10. The Ultimate Disaster.wav" WAVE
INDEX 01 00:00:00
TRACK 11 AUDIO
TITLE "Beauty"
PERFORMER "Barbez"
INDEX 00 06:19:66
FILE "11. Beauty.wav" WAVE
INDEX 01 00:00:00
FILE "12. West Rogers Park.wav" WAVE
TRACK 12 AUDIO
TITLE "West Rogers Park"
PERFORMER "Barbez"
INDEX 01 00:00:00
Доп. информация:
 
a few words
Много лет назад в Москве висели афиши с объявлением о концерте этой группы (кажется, в клубе Апельсин). Я ничего о ней не знал и у меня не было никаких намерений, но один человек сказал мне: пойдём! там билет 150 рублей! Я подумал: хм, что это за группа из Америки, билет на которую стоит 150 рублей? Никакого воодушевления эта мысль мне не принесла, но я был молод и свободен, и потому пошёл.
Так я попал на один из лучших концертов в моей жизни. Невероятные ударные, клавиши и бас сотворяли путь для волшебного дуэта гитары фендер стратокастер и... терменвокса! Может ли в мире быть музыка более божественная? Я не знаю об этом до сих пор, а в тот момент эмоциям моим не было предела (тем более я ещё не знал, что это за странная бондура, которая издаёт такие немыслимые звуки), но куда каким-то эмоциям было успеть за музыкальными полотнами, что создавались прямо на глазах, на сцене и устремлялись от неё в самые недосягаемые глубины космоса. Впечатления усиливались тем сильнее, что звук был просто отличный, а народу собралось всего-то два-три десятка. Поражённый, я на месте купил два диска себе домой.
Дома, однако, меня ждало если не разочарование, то во всяком случае недоумение. На дисках звучало нечто совсем другое, и что это, я тогда просто не понял (я был молод). Что же это было? Теперь у вас есть возможность узнать об этом!
Альбом Insignificance 2005 года: http://rutracker.org/forum/viewtopic.php?t=3841676
Any questions -> support@pro-jazz.com. По всем вопросам пишите -> support@pro-jazz.com
18:59
166
Нет комментариев. Ваш будет первым!