Вы используете незарегистрированную версию компонента "Вкладки"!

Поиск

(British Jazz, Big Band, Vocal Jazz) Mike Westbrook - Chanson Irresponsable (2CD) - 2003, FLAC (tracks+.cue), lossless

(British Jazz, Big Band, Vocal Jazz) Mike Westbrook - Chanson Irresponsable (2CD) - 2003, FLAC (tracks+.cue), lossless
Треклист:
Mike Westbrook / Chanson Irresponsable (2CD)
Жанр: British Jazz, Big Band, Vocal Jazz
Страна-производитель диска: Germany
Год издания: 2003
Издатель (лейбл): Enja Records
Номер по каталогу: ENJ-9456 2
Страна: UK
Аудиокодек: FLAC (*.flac)
Тип рипа: tracks+.cue
Битрейт аудио: lossless
Продолжительность: 53:47 + 50:36
Источник (релизер): свой фирменный диск
Наличие сканов в содержимом раздачи:
Треклист:
 
CD1
1.1 The Reed Bed, The Oak Tree and The Stream
1.2 Stolzierender Protz
1.3 Fight
1.4 Unbekümmerte Liebe
1.5 Chattering Billy
1.6 Tu Crânes
1.7 Amore Spensierato
1.8 Insouciant Amour
 
CD2
2.1 Gran Vanto
2.2 Careless
2.3 Ein Vogel
2.4 Hymne Funèbre
2.5 Vanto D'Amore
2.6 Gone - Travel Light
 
Лог создания рипа
 
CD1
Exact Audio Copy V1.0 beta 3 from 29. August 2011
EAC extraction logfile from 13. August 2013, 21:43
Mike Westbrook / Chanson Irresponsable CD1
Used drive : PIONEER DVD-RW DVR-115D Adapter: 0 ID: 0
Read mode : Secure
Utilize accurate stream : Yes
Defeat audio cache : Yes
Make use of C2 pointers : No
Read offset correction : 48
Overread into Lead-In and Lead-Out : No
Fill up missing offset samples with silence : Yes
Delete leading and trailing silent blocks : No
Null samples used in CRC calculations : Yes
Used interface : Installed external ASPI interface
Gap handling : Appended to previous track
Used output format : User Defined Encoder
Selected bitrate : 896 kBit/s
Quality : High
Add ID3 tag : No
Command line compressor : C:\Program Files\Exact Audio Copy\FLAC\FLAC.EXE
Additional command line options : -6 -V -T "ARTIST=%artist%" -T "TITLE=%title%" -T "ALBUM=%albumtitle%" -T "DATE=%year%" -T "TRACKNUMBER=%tracknr%" -T "GENRE=%genre%" -T "COMMENT=%comment%" -T "BAND=%albuminterpret%" -T "COMPOSER=%composer%" %haslyrics%--tag-from-file=LYRICS="%lyricsfile%"%haslyrics% -T "DISCNUMBER=%cdnumber%" -T "TOTALDISCS=%totalcds%" -T "TOTALTRACKS=%numtracks%" %hascover%--picture="%coverfile%"%hascover% %source% -o %dest%
TOC of the extracted CD
Track | Start | Length | Start sector | End sector
---------------------------------------------------------
1 | 0:00.00 | 4:44.25 | 0 | 21324
2 | 4:44.25 | 7:15.73 | 21325 | 54022
3 | 12:00.23 | 5:23.61 | 54023 | 78308
4 | 17:24.09 | 5:39.71 | 78309 | 103804
5 | 23:04.05 | 7:26.37 | 103805 | 137291
6 | 30:30.42 | 8:41.07 | 137292 | 176373
7 | 39:11.49 | 5:12.69 | 176374 | 199842
8 | 44:24.43 | 9:23.03 | 199843 | 242070
Track 1
Filename D:\zzz\01 - The Reed Bed, The Oak Tree And The Stream.wav
Pre-gap length 0:00:02.00
Peak level 96.6 %
Extraction speed 2.1 X
Track quality 100.0 %
Test CRC 274F6853
Copy CRC 274F6853
Accurately ripped (confidence 4) [7FCB0369] (AR v1)
Copy OK
Track 2
Filename D:\zzz\02 - Stolzierender Protz.wav
Peak level 97.7 %
Extraction speed 2.5 X
Track quality 100.0 %
Test CRC 7E09557C
Copy CRC 7E09557C
Accurately ripped (confidence 4) [7D8C3136] (AR v1)
Copy OK
Track 3
Filename D:\zzz\03 - Fight.wav
Peak level 97.7 %
Extraction speed 2.7 X
Track quality 100.0 %
Test CRC 49A0BE13
Copy CRC 49A0BE13
Accurately ripped (confidence 4) [7EB95F6C] (AR v1)
Copy OK
Track 4
Filename D:\zzz\04 - Unbekummerte Liebe.wav
Peak level 97.7 %
Extraction speed 2.7 X
Track quality 99.9 %
Test CRC 667F45E0
Copy CRC 667F45E0
Accurately ripped (confidence 4) [E39F7099] (AR v1)
Copy OK
Track 5
Filename D:\zzz\05 - Chattering Billy.wav
Peak level 97.7 %
Extraction speed 3.0 X
Track quality 99.9 %
Test CRC F3C2D780
Copy CRC F3C2D780
Accurately ripped (confidence 4) [D735535E] (AR v1)
Copy OK
Track 6
Filename D:\zzz\06 - Tu Cranes.wav
Peak level 97.7 %
Extraction speed 3.6 X
Track quality 100.0 %
Test CRC 55AF3192
Copy CRC 55AF3192
Accurately ripped (confidence 4) [684ECFE7] (AR v1)
Copy OK
Track 7
Filename D:\zzz\07 - Amore Spensierato.wav
Peak level 97.7 %
Extraction speed 3.6 X
Track quality 100.0 %
Test CRC 16B854BD
Copy CRC 16B854BD
Accurately ripped (confidence 4) [B324DE15] (AR v1)
Copy OK
Track 8
Filename D:\zzz\08 - Insoucient Amour.wav
Peak level 97.7 %
Extraction speed 1.0 X
Track quality 100.0 %
Test CRC 53904A11
Copy CRC 53904A11
Accurately ripped (confidence 4) [FD983B87] (AR v1)
Copy OK
All tracks accurately ripped
No errors occurred
End of status report
==== Log checksum D6CA6BE3DC9E35F54C31409E338340F6B73FF0FF15EF40EC5E7485091C7ACF45 ====
 
CD2
Exact Audio Copy V1.0 beta 3 from 29. August 2011
EAC extraction logfile from 14. August 2013, 0:27
Mike Westbrook / Chanson Irresponsable CD2
Used drive : PIONEER DVD-RW DVR-115D Adapter: 0 ID: 0
Read mode : Secure
Utilize accurate stream : Yes
Defeat audio cache : Yes
Make use of C2 pointers : No
Read offset correction : 48
Overread into Lead-In and Lead-Out : No
Fill up missing offset samples with silence : Yes
Delete leading and trailing silent blocks : No
Null samples used in CRC calculations : Yes
Used interface : Installed external ASPI interface
Gap handling : Appended to previous track
Used output format : User Defined Encoder
Selected bitrate : 896 kBit/s
Quality : High
Add ID3 tag : No
Command line compressor : C:\Program Files\Exact Audio Copy\FLAC\FLAC.EXE
Additional command line options : -6 -V -T "ARTIST=%artist%" -T "TITLE=%title%" -T "ALBUM=%albumtitle%" -T "DATE=%year%" -T "TRACKNUMBER=%tracknr%" -T "GENRE=%genre%" -T "COMMENT=%comment%" -T "BAND=%albuminterpret%" -T "COMPOSER=%composer%" %haslyrics%--tag-from-file=LYRICS="%lyricsfile%"%haslyrics% -T "DISCNUMBER=%cdnumber%" -T "TOTALDISCS=%totalcds%" -T "TOTALTRACKS=%numtracks%" %hascover%--picture="%coverfile%"%hascover% %source% -o %dest%
TOC of the extracted CD
Track | Start | Length | Start sector | End sector
---------------------------------------------------------
1 | 0:00.00 | 19:34.20 | 0 | 88069
2 | 19:34.20 | 6:19.26 | 88070 | 116520
3 | 25:53.46 | 6:26.42 | 116521 | 145512
4 | 32:20.13 | 6:02.00 | 145513 | 172662
5 | 38:22.13 | 5:16.12 | 172663 | 196374
6 | 43:38.25 | 6:57.56 | 196375 | 227705
Track 1
Filename D:\zzz\01 - Gran Vanto.wav
Pre-gap length 0:00:02.00
Peak level 97.7 %
Extraction speed 5.4 X
Track quality 99.9 %
Test CRC 6E86A370
Copy CRC 6E86A370
Accurately ripped (confidence 4) [965C713E] (AR v1)
Copy OK
Track 2
Filename D:\zzz\02 - Careless.wav
Peak level 97.7 %
Extraction speed 6.4 X
Track quality 100.0 %
Test CRC 1509869B
Copy CRC 1509869B
Accurately ripped (confidence 4) [738439B1] (AR v1)
Copy OK
Track 3
Filename D:\zzz\03 - Ein Vogel.wav
Peak level 97.7 %
Extraction speed 6.9 X
Track quality 100.0 %
Test CRC 3BCE3172
Copy CRC 3BCE3172
Accurately ripped (confidence 4) [027B3616] (AR v1)
Copy OK
Track 4
Filename D:\zzz\04 - Hymne Funebre.wav
Pre-gap length 0:00:01.02
Peak level 97.7 %
Extraction speed 7.2 X
Track quality 100.0 %
Test CRC D2EEED1B
Copy CRC D2EEED1B
Accurately ripped (confidence 4) [46A61E1E] (AR v1)
Copy OK
Track 5
Filename D:\zzz\05 - Vanto D'Amore.wav
Peak level 97.7 %
Extraction speed 7.5 X
Track quality 100.0 %
Test CRC 0C243928
Copy CRC 0C243928
Accurately ripped (confidence 4) [14B3A7DE] (AR v1)
Copy OK
Track 6
Filename D:\zzz\06 - Gone - Travel Light.wav
Peak level 96.6 %
Extraction speed 8.0 X
Track quality 100.0 %
Test CRC D6696AF4
Copy CRC D6696AF4
Accurately ripped (confidence 4) [562C6FF5] (AR v1)
Copy OK
All tracks accurately ripped
No errors occurred
End of status report
==== Log checksum 0AFAF9947533105D46C1C05620D9D6F77D6B5DCE8201CE97CA5525E054FCA6DF ====
 
Содержание индексной карты (.CUE)
 
CD1
REM GENRE "Big Band"
REM DATE 2003
REM DISCID 690C9B08
REM COMMENT "ExactAudioCopy v1.0b3"
PERFORMER "Mike Westbrook"
TITLE "Chanson Irresponsable CD1"
FILE "01 - The Reed Bed, The Oak Tree And The Stream.wav" WAVE
TRACK 01 AUDIO
TITLE "The Reed Bed, The Oak Tree And The Stream"
PERFORMER "Mike Westbrook"
INDEX 01 00:00:00
FILE "02 - Stolzierender Protz.wav" WAVE
TRACK 02 AUDIO
TITLE "Stolzierender Protz"
PERFORMER "Mike Westbrook"
INDEX 01 00:00:00
FILE "03 - Fight.wav" WAVE
TRACK 03 AUDIO
TITLE "Fight"
PERFORMER "Mike Westbrook"
INDEX 01 00:00:00
FILE "04 - Unbekummerte Liebe.wav" WAVE
TRACK 04 AUDIO
TITLE "Unbekummerte Liebe"
PERFORMER "Mike Westbrook"
INDEX 01 00:00:00
FILE "05 - Chattering Billy.wav" WAVE
TRACK 05 AUDIO
TITLE "Chattering Billy"
PERFORMER "Mike Westbrook"
INDEX 01 00:00:00
FILE "06 - Tu Cranes.wav" WAVE
TRACK 06 AUDIO
TITLE "Tu Cranes"
PERFORMER "Mike Westbrook"
INDEX 01 00:00:00
FILE "07 - Amore Spensierato.wav" WAVE
TRACK 07 AUDIO
TITLE "Amore Spensierato"
PERFORMER "Mike Westbrook"
INDEX 01 00:00:00
FILE "08 - Insoucient Amour.wav" WAVE
TRACK 08 AUDIO
TITLE "Insoucient Amour"
PERFORMER "Mike Westbrook"
INDEX 01 00:00:00
 
CD2
REM GENRE "Big Band"
REM DATE 2003
REM DISCID 440BDC06
REM COMMENT "ExactAudioCopy v1.0b3"
PERFORMER "Mike Westbrook"
TITLE "Chanson Irresponsable CD2"
FILE "01 - Gran Vanto.wav" WAVE
TRACK 01 AUDIO
TITLE "Gran Vanto"
PERFORMER "Mike Westbrook"
INDEX 01 00:00:00
FILE "02 - Careless.wav" WAVE
TRACK 02 AUDIO
TITLE "Careless"
PERFORMER "Mike Westbrook"
INDEX 01 00:00:00
FILE "03 - Ein Vogel.wav" WAVE
TRACK 03 AUDIO
TITLE "Ein Vogel"
PERFORMER "Mike Westbrook"
INDEX 01 00:00:00
TRACK 04 AUDIO
TITLE "Hymne Funebre"
PERFORMER "Mike Westbrook"
INDEX 00 06:25:40
FILE "04 - Hymne Funebre.wav" WAVE
INDEX 01 00:00:00
FILE "05 - Vanto D'Amore.wav" WAVE
TRACK 05 AUDIO
TITLE "Vanto D'Amore"
PERFORMER "Mike Westbrook"
INDEX 01 00:00:00
FILE "06 - Gone - Travel Light.wav" WAVE
TRACK 06 AUDIO
TITLE "Gone - Travel Light"
PERFORMER "Mike Westbrook"
INDEX 01 00:00:00
 
Лог проверки качества
d:\>d:\aucdtect -d/-m0 d:\zzz\*.wav
auCDtect: CD records authenticity detector, version 0.8.2
Copyright (c) 2004 Oleg Berngardt. All rights reserved.
Copyright (c) 2004 Alexander Djourik. All rights reserved.
------------------------------------------------------------
Processing file: [01. Gran Vanto.wav]
------------------------------------------------------------
This track looks like CDDA with probability 100%
------------------------------------------------------------
Processing file: [01. The Reed Bed, The Oak Tree And The Stream.wav]
------------------------------------------------------------
This track looks like CDDA with probability 100%
------------------------------------------------------------
Processing file: [02. Careless.wav]
------------------------------------------------------------
This track looks like CDDA with probability 100%
------------------------------------------------------------
Processing file: [02. Stolzierender Protz.wav]
------------------------------------------------------------
This track looks like CDDA with probability 99%
------------------------------------------------------------
Processing file: [03. Ein Vogel.wav]
------------------------------------------------------------
This track looks like CDDA with probability 99%
------------------------------------------------------------
Processing file: [03. Fight.wav]
------------------------------------------------------------
This track looks like CDDA with probability 100%
------------------------------------------------------------
Processing file: [04. Hymne Funebre.wav]
------------------------------------------------------------
This track looks like CDDA with probability 100%
------------------------------------------------------------
Processing file: [04. Unbekummerte Liebe.wav]
------------------------------------------------------------
This track looks like CDDA with probability 100%
------------------------------------------------------------
Processing file: [05. Chattering Billy.wav]
------------------------------------------------------------
This track looks like CDDA with probability 100%
------------------------------------------------------------
Processing file: [05. Vanto D'Amore.wav]
------------------------------------------------------------
This track looks like CDDA with probability 100%
------------------------------------------------------------
Processing file: [06. Gone - Travel Light.wav]
------------------------------------------------------------
This track looks like CDDA with probability 100%
------------------------------------------------------------
Processing file: [06. Tu Cranes.wav]
------------------------------------------------------------
This track looks like CDDA with probability 100%
------------------------------------------------------------
Processing file: [07. Amore Spensierato.wav]
------------------------------------------------------------
This track looks like CDDA with probability 100%
------------------------------------------------------------
Processing file: [08. Insoucient Amour.wav]
------------------------------------------------------------
This track looks like CDDA with probability 100%
------------------------------------------------------------
Final Conclusion:
------------------------------------------------------------
These tracks looks like CDDA with probability 100%
Доп. информация:
 
Mind Your Own Music Review
This musically innovative and exciting new piece finds Mike & Kate working at their creative peaks and defiantly unafraid to risk everything in their pursuit of new musical forms. Working with a stunning mix of jazz and classical musicians of all ages, the Westbrooks have created a major work for contemporary music that is as startlingly original and uncategorisable as anything in their combined creative history. (Chris Albury, Mind Your Own Music)
 
Состав
Kate Westbrook - voice
Matthew Sharp - voice
Chris Biscoe - alto clarinet, alto saxophone
Peter Whyman - clarinet, bass clarinet, alto a soprano saxophones
Stuart Brooks - trumpet, flugelhorn
Jane Hanna - french horn
Karen Street - tenor saxophone, accordion
Dave Bitelli - baritone saxophone, clarinet
Mark Wilson - violin
Neil McTaggart - violin
David Lasserson - viola
Chris Allan - cello
Tim Harries - bass
Sebastian Rochford - drums
Mike Westbrook - piano, MD
По всем вопросам пишите личное сообщение пользователю M0p94ok.
17:05
167
Нет комментариев. Ваш будет первым!