Вы используете незарегистрированную версию компонента "Вкладки"!

Поиск

(Avant-Garde Jazz) Patrick Cress' Telepathy - Liberate the Radio Stations... - 2003, FLAC (tracks+.cue), lossless

(Avant-Garde Jazz) Patrick Cress' Telepathy - Liberate the Radio Stations... - 2003, FLAC (tracks+.cue), lossless
Треклист:
Patrick Cress' Telepathy - Liberate the Radio Stations...
Жанр: Avant-Garde Jazz
Страна-производитель диска: США
Год издания: 2003
Издатель (лейбл): Odd Shaped Case
Аудиокодек: FLAC (*.flac)
Тип рипа: tracks+.cue
Битрейт аудио: lossless
Продолжительность: 61:35
Источник (релизер): lindinalwa (what)
Наличие сканов в содержимом раздачи: да
Треклист:
01. Truth (Cress) - 7:59
02. Huevos (Berne) - 6:21
03. Quehebib (Cress) - 5:58
04. Black Ladders Lack Bladders (Novik) - 6:07
05. Whisper Hungarian in My Ear (Cantrell) - 8:02
06. Palindrome (Novik) - 6:38
07. Convalescence (take 2) (Cress) - 5:29
08. The Awakening (Part 2 of Decension into Madness) (Cress-Bulkley) - 3:07
09. Cows (Douglas) - 5:22
10. Opus Wiiine (Cress) - 6:32
Состав:
Patrick Cress - alto saxophone, baritone saxophone
Aaron Novik - bass clarinet, Bb clarinet
Tim Bulkley - drums, gong, plastic bag
David Arend - upright bass
Darren Johnston - trumpet (#10)
 
Лог создания рипа
Exact Audio Copy V0.99 prebeta 5 from 4. May 2009
EAC extraction logfile from 4. November 2011, 22:41
Patrick Cress`Telepathy / Liberate The Radio Stations...
Used drive : Optiarc DVD RW AD-7243S Adapter: 0 ID: 1
Read mode : Secure
Utilize accurate stream : Yes
Defeat audio cache : Yes
Make use of C2 pointers : No
Read offset correction : 48
Overread into Lead-In and Lead-Out : No
Fill up missing offset samples with silence : Yes
Delete leading and trailing silent blocks : No
Null samples used in CRC calculations : Yes
Used interface : Native Win32 interface for Win NT & 2000
Gap handling : Appended to previous track
Used output format : User Defined Encoder
Selected bitrate : 768 kBit/s
Quality : High
Add ID3 tag : No
Command line compressor : C:\Program Files\Exact Audio Copy\FLAC\FLAC.EXE
Additional command line options : -6 -V -T "ARTIST=%a" -T "TITLE=%t" -T "ALBUM=%g" -T "DATE=%y" -T "TRACKNUMBER=%n" -T "GENRE=%m" -T "COMMENT=%e" %s -o %d
TOC of the extracted CD
Track | Start | Length | Start sector | End sector
---------------------------------------------------------
1 | 0:00.00 | 7:58.74 | 0 | 35923
2 | 7:58.74 | 6:20.52 | 35924 | 64475
3 | 14:19.51 | 5:58.03 | 64476 | 91328
4 | 20:17.54 | 6:06.56 | 91329 | 118834
5 | 26:24.35 | 8:01.72 | 118835 | 154981
6 | 34:26.32 | 6:38.14 | 154982 | 184845
7 | 41:04.46 | 5:28.61 | 184846 | 209506
8 | 46:33.32 | 3:06.56 | 209507 | 223512
9 | 49:40.13 | 5:21.59 | 223513 | 247646
10 | 55:01.72 | 6:31.70 | 247647 | 277041
Track 1
Filename C:\Documents and Settings\S\Мои документы\Torrent раздача\01.Patrick Cress`Telepathy-Truth.wav
Pre-gap length 0:00:02.00
Peak level 96.6 %
Track quality 100.0 %
Test CRC 4B69FA5C
Copy CRC 4B69FA5C
Track not present in AccurateRip database
Copy OK
Track 2
Filename C:\Documents and Settings\S\Мои документы\Torrent раздача\02.Patrick Cress`Telepathy-Huevos.wav
Pre-gap length 0:00:02.00
Peak level 96.6 %
Track quality 100.0 %
Test CRC 393911E5
Copy CRC 393911E5
Track not present in AccurateRip database
Copy OK
Track 3
Filename C:\Documents and Settings\S\Мои документы\Torrent раздача\03.Patrick Cress`Telepathy-Quechebib.wav
Pre-gap length 0:00:02.00
Peak level 92.8 %
Track quality 100.0 %
Test CRC 51B86ED5
Copy CRC 51B86ED5
Track not present in AccurateRip database
Copy OK
Track 4
Filename C:\Documents and Settings\S\Мои документы\Torrent раздача\04.Patrick Cress`Telepathy-Black ladders lack bladders.wav
Pre-gap length 0:00:02.00
Peak level 94.5 %
Track quality 100.0 %
Test CRC 9208E347
Copy CRC 9208E347
Track not present in AccurateRip database
Copy OK
Track 5
Filename C:\Documents and Settings\S\Мои документы\Torrent раздача\05.Patrick Cress`Telepathy-Whisper hungarian in my car.wav
Pre-gap length 0:00:02.00
Peak level 96.6 %
Track quality 100.0 %
Test CRC 9436AA1D
Copy CRC 9436AA1D
Track not present in AccurateRip database
Copy OK
Track 6
Filename C:\Documents and Settings\S\Мои документы\Torrent раздача\06.Patrick Cress`Telepathy-Palindrome.wav
Pre-gap length 0:00:03.00
Peak level 92.8 %
Track quality 100.0 %
Test CRC FDC35CB5
Copy CRC FDC35CB5
Track not present in AccurateRip database
Copy OK
Track 7
Filename C:\Documents and Settings\S\Мои документы\Torrent раздача\07.Patrick Cress`Telepathy-Convalescence.wav
Pre-gap length 0:00:02.00
Peak level 96.6 %
Track quality 100.0 %
Test CRC 725A4B05
Copy CRC 725A4B05
Track not present in AccurateRip database
Copy OK
Track 8
Filename C:\Documents and Settings\S\Мои документы\Torrent раздача\08.Patrick Cress`Telepathy-The awakening.wav
Pre-gap length 0:00:02.00
Peak level 96.6 %
Track quality 100.0 %
Test CRC 4B1653A8
Copy CRC 4B1653A8
Track not present in AccurateRip database
Copy OK
Track 9
Filename C:\Documents and Settings\S\Мои документы\Torrent раздача\09.Patrick Cress`Telepathy-Cows.wav
Pre-gap length 0:00:02.00
Peak level 91.4 %
Track quality 100.0 %
Test CRC 5897CEFC
Copy CRC 5897CEFC
Track not present in AccurateRip database
Copy OK
Track 10
Filename C:\Documents and Settings\S\Мои документы\Torrent раздача\10.Patrick Cress`Telepathy-Opus wiiine.wav
Pre-gap length 0:00:02.00
Peak level 93.5 %
Track quality 100.0 %
Test CRC 785C418F
Copy CRC 785C418F
Track not present in AccurateRip database
Copy OK
None of the tracks are present in the AccurateRip database
No errors occurred
End of status report
 
Содержание индексной карты (.CUE)
REM GENRE Jazz
REM DATE 2003
REM DISCID 950E6D0A
REM COMMENT "ExactAudioCopy v0.99pb5"
PERFORMER "Patrick Cress' Telepathy"
TITLE "Liberate the Radio Stations..."
FILE "01 - Truth.wav" WAVE
TRACK 01 AUDIO
TITLE "Truth"
PERFORMER "Patrick Cress' Telepathy"
INDEX 01 00:00:00
TRACK 02 AUDIO
TITLE "Huevos"
PERFORMER "Patrick Cress' Telepathy"
INDEX 00 07:56:74
FILE "02 - Huevos.wav" WAVE
INDEX 01 00:00:00
TRACK 03 AUDIO
TITLE "Quehebib"
PERFORMER "Patrick Cress' Telepathy"
INDEX 00 06:18:52
FILE "03 - Quehebib.wav" WAVE
INDEX 01 00:00:00
TRACK 04 AUDIO
TITLE "Black Ladders Lack Bladders"
PERFORMER "Patrick Cress' Telepathy"
INDEX 00 05:56:03
FILE "04 - Black Ladders Lack Bladders.wav" WAVE
INDEX 01 00:00:00
TRACK 05 AUDIO
TITLE "Whisper Hungarian in My Ear"
PERFORMER "Patrick Cress' Telepathy"
INDEX 00 06:04:56
FILE "05 - Whisper Hungarian in My Ear.wav" WAVE
INDEX 01 00:00:00
TRACK 06 AUDIO
TITLE "Palindrome"
PERFORMER "Patrick Cress' Telepathy"
INDEX 00 07:58:72
FILE "06 - Palindrome.wav" WAVE
INDEX 01 00:00:00
TRACK 07 AUDIO
TITLE "Convalescence (take 2)"
PERFORMER "Patrick Cress' Telepathy"
INDEX 00 06:36:14
FILE "07 - Convalescence (take 2).wav" WAVE
INDEX 01 00:00:00
TRACK 08 AUDIO
TITLE "The Awakening (Part 2 of Decension into Madness)"
PERFORMER "Patrick Cress' Telepathy"
INDEX 00 05:26:61
FILE "08 - The Awakening (Part 2 of Decension into Madness).wav" WAVE
INDEX 01 00:00:00
TRACK 09 AUDIO
TITLE "Cows"
PERFORMER "Patrick Cress' Telepathy"
INDEX 00 03:04:56
FILE "09 - Cows.wav" WAVE
INDEX 01 00:00:00
TRACK 10 AUDIO
TITLE "Opus Wiiine"
PERFORMER "Patrick Cress' Telepathy"
INDEX 00 05:19:59
FILE "10 - Opus Wiiine.wav" WAVE
INDEX 01 00:00:00
 
Отчет CUETools
[CUETools log; Date: 15.08.2013 22:41:07; Version: 2.1.4]
[CTDB TOCID: GluRkgNx80ItghM8_cifP7GWOWs-] disk not present in database.
[AccurateRip ID: 001889a5-00c12ddb-950e6d0a] disk not present in database.
Track Peak [ CRC32 ] [W/O NULL] [ LOG ]
-- 96,6 [7074AF6D] [94CF8295]
01 96,6 [4B69FA5C] [68B16B52] CRC32
02 96,6 [393911E5] [AA5E0908] CRC32
03 92,8 [51B86ED5] [2F52D4EE] CRC32
04 94,5 [9208E347] [72C2B248] CRC32
05 96,6 [9436AA1D] [CA8E46EA] CRC32
06 92,8 [FDC35CB5] [06AC1BED] CRC32
07 96,6 [725A4B05] [312ACDE3] CRC32
08 96,6 [4B1653A8] [14012D74] CRC32
09 91,4 [5897CEFC] [BCF6069B] CRC32
10 93,5 [785C418F] [EC813134] CRC32
 
Об альбоме (сборнике)
Patrick Cress' Telepathy (PCT) has expanded the boundaries of traditional jazz to help create new excitement in America’s original art form. The group’s energy and personality, represent the spirit of 60’s jazz while capturing the attention of a diverse and dynamic audience. PCT’s root in tradition and cerebral elements attract jazz and classical aficionados alike, while it’s rock influences attract a much younger demographic. Together, the collective audience repeatedly engages in Telepathy’s music and witnesses the fabric of a strong San Francisco jazz scene.
Founded in March 2002, Patrick Cress, saxophones, conceived Telepathy out of his many influences, including Ornette Coleman and Tim Berne, who pay homage to the traditions of jazz while pushing musical boundaries. Graduating with a bachelor’s in music at the University of Michigan, Cress was schooled by Donald Walden’s strict jazz theory and Donald Sinta’s brilliant classical mind. Out of this and an eighteen-year passion for music, Cress manifested these influences into a specific original concept.
Since its' inception, Patrick Cress' Telepathy has performed both nationally and internationally. The group has played for diverse audiences from San Francisco’s Bruno’s and ODC Theater, Berkeley’s Jazz House, to L.A.’s the Mint, Santa Monica’s Temple Bar to Portland’s Mt. Tabor Theater and Vancouver’s Sugar Refinery. The band plans another series of tours to Southern California and the Pacific Northwest to kick off the new year and promote their second album, "Liberate the radio stations."
По всем вопросам пишите личное сообщение пользователю M0p94ok.
17:06
173
Нет комментариев. Ваш будет первым!