Поиск

(Brazilian Jazz/Samba Jazz/Choro/Waltz) Ary Barroso - Encontro Com Ary - 1955, FLAC (image+.cue), lossless

Треклист:
Ary Barroso - Encontro Com Ary
Жанр: Brazilian Jazz/Samba Jazz/Choro/Waltz
Год выпуска диска: 1955
Производитель диска: Som Ind. E Com. S.A. - CLP 11364 - Brazil
Источник: My CD
Аудио кодек: FLAC
Тип рипа: image+.cue
Битрейт аудио: lossless
Продолжительность: 30:30
Трэклист:
01 - Trapo De Gente (4:57)
02 - Minha Magoa (3:26)
03 - Risque (2:57)
04 - Camisa Amarela (3:30)
05 - Na Baixa Do Sapateiro (4:20)
06 - Rancho Fundo (3:13)
07 - Choro Brasileiro Nº 3 (2:31)
08 - Nem Ela/Samba Aquarela Do Brasil (5:19)
 
Scans
 
Info
This is Ary Barroso - Encontro com Ary (1955), for Copacabana, featuring Ary Barroso playing piano, chatting and singing his own compositions. I'm making available Ary's message using a hi-res scan from my copy, which is not the first 1955 Copacabana's issue, but a 1964 reissue. It is nice to see that Copacanana kept the same artwork for front and back covers. It is also mandatory to check Daniella Thompson's Ary Barroso Discography for additional details on this nice album, including an English translation of Ary Barroso's message.
 
EAC Лог
Exact Audio Copy V0.99 prebeta 5 from 4. May 2009
EAC extraction logfile from 8. March 2010, 13:50
Ary Barroso / Encontro Com Ary
Used drive : HL-DT-STDVDRAM GH20NS15 Adapter: 0 ID: 0
Read mode : Secure
Utilize accurate stream : Yes
Defeat audio cache : Yes
Make use of C2 pointers : No
Read offset correction : 667
Overread into Lead-In and Lead-Out : No
Fill up missing offset samples with silence : Yes
Delete leading and trailing silent blocks : No
Null samples used in CRC calculations : Yes
Used interface : Installed external ASPI interface
Used output format : User Defined Encoder
Selected bitrate : 1024 kBit/s
Quality : High
Add ID3 tag : No
Command line compressor : C:\Program Files\Exact Audio Copy\Flac\flac.exe
Additional command line options : -8 -A tukey(0.25) -A gauss(0.1875) -b 4096 -V -T "artist=%a" -T "title=%t" -T "album=%g" -T "date=%y" -T "tracknumber=%n" -T "genre=%m" %s --sector-align
TOC of the extracted CD
Track | Start | Length | Start sector | End sector
---------------------------------------------------------
1 | 0:00.00 | 4:59.14 | 0 | 22438
2 | 4:59.14 | 3:28.46 | 22439 | 38084
3 | 8:27.60 | 2:59.55 | 38085 | 51564
4 | 11:27.40 | 3:32.25 | 51565 | 67489
5 | 14:59.65 | 4:22.71 | 67490 | 87210
6 | 19:22.61 | 3:15.31 | 87211 | 101866
7 | 22:38.17 | 2:33.28 | 101867 | 113369
8 | 25:11.45 | 5:19.25 | 113370 | 137319
Range status and errors
Selected range
Filename D:\Torrents.ru\Ary Barroso\Ary Barroso - Encontro Com Ary\Ary Barroso - Encontro Com Ary.wav
Peak level 100.0 %
Range quality 100.0 %
Test CRC 111B0B6A
Copy CRC 111B0B6A
Copy OK
No errors occurred
End of status report
 
Audiochecker
AUDIOCHECKER v2.0 beta (build 457) - by Dester - opdester@freemail.hu
~~~~~~~~~~~~~~~~~~~~~~~~~~~~~~~~~~
-=== DO NOT EDIT THIS FILE! ===-
Path: ...\Ary Barroso - Encontro Com Ary
1 -=- Ary Barroso - Encontro Com Ary.flac -=- CDDA (100%)
207146292
14:45
365
Нет комментариев. Ваш будет первым!