Поиск

(Bossa Nova/Brazilian Jazz) Rogerio Duprat - The Brazilian Suite - 1970, FLAC (image+.cue), lossless

Треклист:
Rogerio Duprat - The Brazilian Suite
Жанр: Bossa Nova/Brazilian Jazz
Год выпуска диска: 1970
Производитель диска: KPM Music Recorded Library - KPM.1071 - Brazil
Источник: My CD
Аудио кодек: FLAC
Тип рипа: image+.cue
Битрейт аудио: lossless
Продолжительность: 34:32
Трэклист:
01 - Theme Montage (2:32)
02 - Setting The Scene (3:16)
03 - Spotlight (3:44)
04 - Commerce In Rhythm (3:33)
05 - Percussion Highway (3:06)
06 - Tropical Green (3:10)
07 - Meeting In Brazilia (5:44)
08 - Rio Back Street (2:54)
09 - Flute Formula (3:23)
10 - Skilful Manoeuvre (2:48)
 
Scans
 
Info
This is Rogerio Duprat - The Brazilian Suite (1970), for KPM Music Library, with Maestro Rogerio Duprat delivering Tropicalia arrangements with lots of electric guitars, percussion and orchestra. KPM Music Library was a British label that went famous by its "1000 Series". KPM was later bought by EMI and many of the LPS from the 1000 Series have been reissued on CD.
 
EAC Лог
Exact Audio Copy V0.99 prebeta 5 from 4. May 2009
EAC extraction logfile from 21. March 2010, 20:17
Rogerio Duprat / The Brazilian Suite
Used drive : HL-DT-STDVDRAM GH20NS15 Adapter: 2 ID: 0
Read mode : Secure
Utilize accurate stream : Yes
Defeat audio cache : Yes
Make use of C2 pointers : No
Read offset correction : 667
Overread into Lead-In and Lead-Out : No
Fill up missing offset samples with silence : Yes
Delete leading and trailing silent blocks : No
Null samples used in CRC calculations : Yes
Used interface : Installed external ASPI interface
Used output format : User Defined Encoder
Selected bitrate : 1024 kBit/s
Quality : High
Add ID3 tag : No
Command line compressor : C:\Program Files (x86)\Exact Audio Copy\FLAC\FLAC.EXE
Additional command line options : -8 -A tukey(0.25) -A gauss(0.1875) -b 4096 -V -T "artist=%a" -T "title=%t" -T "album=%g" -T "date=%y" -T "tracknumber=%n" -T "genre=%m" %s --sector-align
TOC of the extracted CD
Track | Start | Length | Start sector | End sector
---------------------------------------------------------
1 | 0:00.00 | 2:34.61 | 0 | 11610
2 | 2:34.61 | 3:18.05 | 11611 | 26465
3 | 5:52.66 | 3:46.44 | 26466 | 43459
4 | 9:39.35 | 3:35.46 | 43460 | 59630
5 | 13:15.06 | 3:08.27 | 59631 | 73757
6 | 16:23.33 | 3:12.16 | 73758 | 88173
7 | 19:35.49 | 5:46.17 | 88174 | 114140
8 | 25:21.66 | 2:56.39 | 114141 | 127379
9 | 28:18.30 | 3:25.22 | 127380 | 142776
10 | 31:43.52 | 2:48.74 | 142777 | 155450
Range status and errors
Selected range
Filename D:\Torrents.ru\Rogerio Duprat\Rogerio Duprat - The Brazilian Suite\Rogerio Duprat - The Brazilian Suite.wav
Peak level 100.0 %
Range quality 99.9 %
Test CRC 48C91C88
Copy CRC 48C91C88
Copy OK
No errors occurred
End of status report
 
Audiochecker
AUDIOCHECKER v2.0 beta (build 457) - by Dester - opdester@freemail.hu
~~~~~~~~~~~~~~~~~~~~~~~~~~~~~~~~~~
Started at: domingo, 21. 03. 2010. - 20:50.32
1 file found
1 -===- D:\Torrents.ru\Rogerio Duprat\Rogerio Duprat - The Brazilian Suite\Rogerio Duprat - The Brazilian Suite.flac
Extracted successfully
Conclusion: this track is CDDA with probability 100%
Tempfile successfully deleted.
Finished at: domingo, 21. 03. 2010. - 20:52.39 (operation time: 0:02.07)
14:46
354
Нет комментариев. Ваш будет первым!