Поиск

(Brazilian Jazz, Vocal Jazz) Elis Regina - Em Pleno Verao (1970) - 2005, FLAC (tracks+.cue), lossless

(Brazilian Jazz, Vocal Jazz) Elis Regina - Em Pleno Verao (1970) - 2005, FLAC (tracks+.cue), lossless
Треклист:
Elis Regina
... Em Pleno Verão
.

.
Жанр: Brazilian Jazz, Vocal Jazz | Страна: Brazil
Дата выпуска альбома / диска: 1970 / 2005 | Производитель диска: Universal Music, Brazil
Аудио кодек: FLAC | Тип рипа: tracks+.cue | Битрейт аудио: lossless
+ JPG art scans
Формат: Studio Album
Источник: original CD, ripped by Flabber
Продолжительность: 31:18
.~ TRACKLiST ~
01. Vou deitar e rolar (3:23)
(Baden Powell - Paulo César Pinheiro)
02. Bicho do mato (3:25)
(Jorge Ben)
03. Verão vermelho (1:38)
(Nonato Buzar)
04. Até aí morreu Neves (2:16)
(Jorge Ben)
05. Frevo (2:31)
(Tom Jobim - Vinicius de Moraes)
06. As curvas da estrada de Santos (3:41)
(Erasmo Carlos - Roberto Carlos)
07. Fechado pra balanço (2:40)
(Gilberto Gil)
08. Não tenha medo (2:46)
(Caetano Veloso)
09. These are the songs (com Tim Maia) (3:09)
(Tim Maia)
10. Comunicação (2:46)
(Édson Alencar - Hélio Matheus)
11. Copacabana velha de guerra (2:59)
(Sergio Flaksman - Joyce) .
 
EAC log
EAC extraction logfile from 10. May 2008, 12:12 for CD
Elis Regina / ...em Pleno Verгo
Used drive : TDK CDRW5200B Adapter: 1 ID: 1
Read mode : Secure with NO C2, accurate stream, disable cache
Read offset correction : 6
Overread into Lead-In and Lead-Out : No
Used output format : Internal WAV Routines
44.100 Hz; 16 Bit; Stereo
Other options :
Fill up missing offset samples with silence : Yes
Delete leading and trailing silent blocks : No
Native Win32 interface for Win NT & 2000
Track 1
Filename C:\01 - Vou Deitar e Rolar (Quaquaraquaqua).wav
Pre-gap length 0:00:02.00
Peak level 100.0 %
Track quality 100.0 %
Test CRC 70971820
Copy CRC 70971820
Copy OK
Track 2
Filename C:\02 - Bicho do Mato.wav
Pre-gap length 0:00:01.45
Peak level 100.0 %
Track quality 100.0 %
Test CRC 4E9415FA
Copy CRC 4E9415FA
Copy OK
Track 3
Filename C:\03 - Verao Vermelho.wav
Pre-gap length 0:00:01.45
Peak level 100.0 %
Track quality 100.0 %
Test CRC E696B630
Copy CRC E696B630
Copy OK
Track 4
Filename C:\04 - Ate Ai Morreu Neves.wav
Pre-gap length 0:00:01.45
Peak level 100.0 %
Track quality 100.0 %
Test CRC A677E856
Copy CRC A677E856
Copy OK
Track 5
Filename C:\05 - Frevo.wav
Pre-gap length 0:00:01.45
Peak level 100.0 %
Track quality 100.0 %
Test CRC 3704C846
Copy CRC 3704C846
Copy OK
Track 6
Filename C:\06 - As Curvas da Estrada de Santos.wav
Pre-gap length 0:00:01.45
Peak level 100.0 %
Track quality 100.0 %
Test CRC F774AD4B
Copy CRC F774AD4B
Copy OK
Track 7
Filename C:\07 - Fechado pra Balanco.wav
Pre-gap length 0:00:01.45
Peak level 100.0 %
Track quality 100.0 %
Test CRC AF6B0797
Copy CRC AF6B0797
Copy OK
Track 8
Filename C:\08 - Nгo Tenho Medo.wav
Pre-gap length 0:00:01.45
Peak level 99.7 %
Track quality 100.0 %
Test CRC 0F80D4EE
Copy CRC 0F80D4EE
Copy OK
Track 9
Filename C:\09 - These Are the Songs.wav
Pre-gap length 0:00:01.45
Peak level 100.0 %
Track quality 100.0 %
Test CRC D7657511
Copy CRC D7657511
Copy OK
Track 10
Filename C:\10 - Comunicacao.wav
Pre-gap length 0:00:01.45
Peak level 100.0 %
Track quality 100.0 %
Test CRC EBAB3466
Copy CRC EBAB3466
Copy OK
Track 11
Filename C:\11 - Copacabana Velha de Guerra.wav
Pre-gap length 0:00:01.45
Peak level 100.0 %
Track quality 100.0 %
Test CRC F97CB4A9
Copy CRC F97CB4A9
Copy OK
No errors occured
End of status report
 
*.cue
REM GENRE MPB
REM DATE 1970
REM DISCID 7507590B
REM COMMENT "ExactAudioCopy v0.95b3"
PERFORMER "Elis Regina"
TITLE "...em Pleno Verao"
FILE "01 - Vou Deitar e Rolar (Quaquaraquaqua).wav" WAVE
TRACK 01 AUDIO
TITLE "Vou Deitar e Rolar (Quaquaraquaqua)"
PERFORMER "Elis Regina"
INDEX 01 00:00:00
TRACK 02 AUDIO
TITLE "Bicho do Mato"
PERFORMER "Elis Regina"
INDEX 00 03:22:33
FILE "02 - Bicho do Mato.wav" WAVE
INDEX 01 00:00:00
TRACK 03 AUDIO
TITLE "Verao Vermelho"
PERFORMER "Elis Regina"
INDEX 00 03:23:73
FILE "03 - Verao Vermelho.wav" WAVE
INDEX 01 00:00:00
TRACK 04 AUDIO
TITLE "Ate Ai Morreu Neves"
PERFORMER "Elis Regina"
INDEX 00 01:37:09
FILE "04 - Ate Ai Morreu Neves.wav" WAVE
INDEX 01 00:00:00
TRACK 05 AUDIO
TITLE "Frevo"
PERFORMER "Elis Regina"
INDEX 00 02:14:67
FILE "05 - Frevo.wav" WAVE
INDEX 01 00:00:00
TRACK 06 AUDIO
TITLE "As Curvas da Estrada de Santos"
PERFORMER "Elis Regina"
INDEX 00 02:30:06
FILE "06 - As Curvas da Estrada de Santos.wav" WAVE
INDEX 01 00:00:00
TRACK 07 AUDIO
TITLE "Fechado pra Balanco"
PERFORMER "Elis Regina"
INDEX 00 03:40:06
FILE "07 - Fechado pra Balanco.wav" WAVE
INDEX 01 00:00:00
TRACK 08 AUDIO
TITLE "Nao Tenho Medo"
PERFORMER "Elis Regina"
INDEX 00 02:39:15
FILE "08 - Nao Tenho Medo.wav" WAVE
INDEX 01 00:00:00
TRACK 09 AUDIO
TITLE "These Are the Songs"
PERFORMER "Elis Regina"
INDEX 00 02:44:71
FILE "09 - These Are the Songs.wav" WAVE
INDEX 01 00:00:00
TRACK 10 AUDIO
TITLE "Comunicacao"
PERFORMER "Elis Regina"
INDEX 00 03:07:65
FILE "10 - Comunicacao.wav" WAVE
INDEX 01 00:00:00
TRACK 11 AUDIO
TITLE "Copacabana Velha de Guerra"
PERFORMER "Elis Regina"
INDEX 00 02:44:59
FILE "11 - Copacabana Velha de Guerra.wav" WAVE
INDEX 01 00:00:00
 
Audiochecker’s log
AUDIOCHECKER v2.0 beta (build 457) - by Dester - opdester@freemail.hu
~~~~~~~~~~~~~~~~~~~~~~~~~~~~~~~~~~
Started at: воскресенье, 10. 07. 2011. - 18:26.43
11 files found
01 -===- F:\Elis Regina - Em Pleno Verao (1970) 2005 [flac]\01 - Vou Deitar e Rolar (Quaquaraquaqua).flac
Extracted successfully
Conclusion: this track is CDDA with probability 100%
Tempfile successfully deleted.
02 -===- F:\Elis Regina - Em Pleno Verao (1970) 2005 [flac]\02 - Bicho do Mato.flac
Extracted successfully
Conclusion: this track is CDDA with probability 99%
Tempfile successfully deleted.
03 -===- F:\Elis Regina - Em Pleno Verao (1970) 2005 [flac]\03 - Verao Vermelho.flac
Extracted successfully
Conclusion: this track is CDDA with probability 100%
Tempfile successfully deleted.
04 -===- F:\Elis Regina - Em Pleno Verao (1970) 2005 [flac]\04 - Ate Ai Morreu Neves.flac
Extracted successfully
Conclusion: this track is CDDA with probability 99%
Tempfile successfully deleted.
05 -===- F:\Elis Regina - Em Pleno Verao (1970) 2005 [flac]\05 - Frevo.flac
Extracted successfully
Conclusion: this track is CDDA with probability 99%
Tempfile successfully deleted.
06 -===- F:\Elis Regina - Em Pleno Verao (1970) 2005 [flac]\06 - As Curvas da Estrada de Santos.flac
Extracted successfully
Conclusion: this track is CDDA with probability 99%
Tempfile successfully deleted.
07 -===- F:\Elis Regina - Em Pleno Verao (1970) 2005 [flac]\07 - Fechado pra Balanco.flac
Extracted successfully
Conclusion: this track is CDDA with probability 100%
Tempfile successfully deleted.
08 -===- F:\Elis Regina - Em Pleno Verao (1970) 2005 [flac]\08 - Nao Tenho Medo.flac
Extracted successfully
Conclusion: this track is CDDA with probability 99%
Tempfile successfully deleted.
09 -===- F:\Elis Regina - Em Pleno Verao (1970) 2005 [flac]\09 - These Are the Songs.flac
Extracted successfully
Conclusion: this track is CDDA with probability 100%
Tempfile successfully deleted.
10 -===- F:\Elis Regina - Em Pleno Verao (1970) 2005 [flac]\10 - Comunicacao.flac
Extracted successfully
Conclusion: this track is CDDA with probability 100%
Tempfile successfully deleted.
11 -===- F:\Elis Regina - Em Pleno Verao (1970) 2005 [flac]\11 - Copacabana Velha de Guerra.flac
Extracted successfully
Conclusion: this track is CDDA with probability 100%
Tempfile successfully deleted.
Finished at: воскресенье, 10. 07. 2011. - 18:44.32 (operation time: 0:17.48)
.mp3.Сидирую до первых 10-ти скачавших. Далее раздача поддерживается силами скачавших.
Скачали сами - дайте скачать другим.
22:02
243
Нет комментариев. Ваш будет первым!