Поиск

(Brazilian Jazz, Soul, Funk) Tim Maia - Tim Maia (1972) - 1993, FLAC (tracks+.cue), lossless

(Brazilian Jazz, Soul, Funk) Tim Maia - Tim Maia (1972) - 1993, FLAC (tracks+.cue), lossless
Треклист:
Tim Maia
Tim Maia (1972)
Жанр: Brazilian Jazz, Soul, Funk
Дата выпуска альбома / диска: 1972 / 1993
Производитель диска: PolyGram Brazil 519 659-2 (c) 1993
Страна: Brazil
Формат: Studio Album
Аудио кодек: FLAC
Тип рипа: tracks+.cue
Битрейт аудио: lossless
Продолжительность: 34:44
Tracklist:
01. Idade (2:15)
02. My Little Girl (2:05)
03. O que voce quer apostar (2:30)
04. Canario do reino (2:21)
05. Ja era tempo de voce (3:13)
06. Where is my other half (3:56)
07. O que me importa (2:33)
08. Lamento (3:29)
09. Sofre (4:44)
10. Razao de sambar (1:28)
11. Pelo amor de Deus (3:01)
12. These are the songs (esta e a cancao) (3:09)
Рип c оригинала, автор рипа Flabber.
 
EAC log
EAC extraction logfile from 19. May 2008, 12:47 for CD
Tim Maia / Tim Maia
Used drive : TDK CDRW5200B Adapter: 1 ID: 1
Read mode : Secure with NO C2, accurate stream, disable cache
Read offset correction : 6
Overread into Lead-In and Lead-Out : No
Used output format : Internal WAV Routines
44.100 Hz; 16 Bit; Stereo
Other options :
Fill up missing offset samples with silence : Yes
Delete leading and trailing silent blocks : No
Native Win32 interface for Win NT & 2000
Track 1
Filename C:\01 - Idade.wav
Pre-gap length 0:00:02.32
Peak level 95.3 %
Track quality 100.0 %
Test CRC E9E8C587
Copy CRC E9E8C587
Copy OK
Track 2
Filename C:\02 - My Little Girl.wav
Pre-gap length 0:00:00.05
Peak level 96.8 %
Track quality 100.0 %
Test CRC 68A24D24
Copy CRC 68A24D24
Copy OK
Track 3
Filename C:\03 - O que voce quer apostar .wav
Pre-gap length 0:00:00.02
Peak level 86.5 %
Track quality 100.0 %
Test CRC 87AB4E74
Copy CRC 87AB4E74
Copy OK
Track 4
Filename C:\04 - Canario do reino.wav
Pre-gap length 0:00:00.25
Peak level 98.8 %
Track quality 100.0 %
Test CRC 80E985F8
Copy CRC 80E985F8
Copy OK
Track 5
Filename C:\05 - Ja era tempo de voce.wav
Pre-gap length 0:00:00.12
Peak level 90.6 %
Track quality 100.0 %
Test CRC EDF4D737
Copy CRC EDF4D737
Copy OK
Track 6
Filename C:\06 - Where is my other half.wav
Peak level 81.9 %
Track quality 100.0 %
Test CRC 73634C4A
Copy CRC 73634C4A
Copy OK
Track 7
Filename C:\07 - O que me importa.wav
Pre-gap length 0:00:00.25
Peak level 67.6 %
Track quality 100.0 %
Test CRC 11A41E68
Copy CRC 11A41E68
Copy OK
Track 8
Filename C:\08 - Lamento.wav
Pre-gap length 0:00:00.07
Peak level 91.9 %
Track quality 100.0 %
Test CRC 40214F78
Copy CRC 40214F78
Copy OK
Track 9
Filename C:\09 - Sofre.wav
Pre-gap length 0:00:00.12
Peak level 100.0 %
Track quality 99.9 %
Test CRC C4E4424E
Copy CRC C4E4424E
Copy OK
Track 10
Filename C:\10 - Razao de sambar.wav
Peak level 90.4 %
Track quality 100.0 %
Test CRC C412215F
Copy CRC C412215F
Copy OK
Track 11
Filename C:\11 - Pelo amor de Deus.wav
Peak level 76.0 %
Track quality 100.0 %
Test CRC 70907EA6
Copy CRC 70907EA6
Copy OK
Track 12
Filename C:\12 - These are the songs (esta e a cancao).wav
Peak level 67.3 %
Track quality 100.0 %
Test CRC BE7DACCF
Copy CRC BE7DACCF
Copy OK
No errors occured
End of status report
 
*.cue
REM GENRE Other
REM DATE 1972
REM DISCID 9D082B0C
REM COMMENT "ExactAudioCopy v0.95b3"
PERFORMER "Tim Maia"
TITLE "Tim Maia"
FILE "01 - Idade.wav" WAVE
TRACK 01 AUDIO
TITLE "Idade"
PERFORMER "Tim Maia"
PREGAP 00:00:32
INDEX 01 00:00:00
TRACK 02 AUDIO
TITLE "My Little Girl"
PERFORMER "Tim Maia"
INDEX 00 02:15:38
FILE "02 - My Little Girl.wav" WAVE
INDEX 01 00:00:00
TRACK 03 AUDIO
TITLE "O que vocк quer apostar?"
PERFORMER "Tim Maia"
INDEX 00 02:05:50
FILE "03 - O que vocк quer apostar .wav" WAVE
INDEX 01 00:00:00
TRACK 04 AUDIO
TITLE "Canбrio do reino"
PERFORMER "Tim Maia"
INDEX 00 02:30:13
FILE "04 - Canбrio do reino.wav" WAVE
INDEX 01 00:00:00
TRACK 05 AUDIO
TITLE "Jб era tempo de vocк"
PERFORMER "Tim Maia"
INDEX 00 02:21:15
FILE "05 - Jб era tempo de vocк.wav" WAVE
INDEX 01 00:00:00
FILE "06 - Where is my other half.wav" WAVE
TRACK 06 AUDIO
TITLE "Where is my other half"
PERFORMER "Tim Maia"
INDEX 01 00:00:00
TRACK 07 AUDIO
TITLE "O que me importa"
PERFORMER "Tim Maia"
INDEX 00 03:56:37
FILE "07 - O que me importa.wav" WAVE
INDEX 01 00:00:00
TRACK 08 AUDIO
TITLE "Lamento"
PERFORMER "Tim Maia"
INDEX 00 02:33:43
FILE "08 - Lamento.wav" WAVE
INDEX 01 00:00:00
TRACK 09 AUDIO
TITLE "Sofre"
PERFORMER "Tim Maia"
INDEX 00 03:29:13
FILE "09 - Sofre.wav" WAVE
INDEX 01 00:00:00
FILE "10 - Razгo de sambar.wav" WAVE
TRACK 10 AUDIO
TITLE "Razгo de sambar"
PERFORMER "Tim Maia"
INDEX 01 00:00:00
FILE "11 - Pelo amor de Deus.wav" WAVE
TRACK 11 AUDIO
TITLE "Pelo amor de Deus"
PERFORMER "Tim Maia"
INDEX 01 00:00:00
FILE "12 - These are the songs (esta й a canзгo).wav" WAVE
TRACK 12 AUDIO
TITLE "These are the songs (esta й a canзгo)"
PERFORMER "Tim Maia"
INDEX 01 00:00:00
 
Audiochecker’s log
AUDIOCHECKER v2.0 beta (build 457) - by Dester - opdester@freemail.hu
~~~~~~~~~~~~~~~~~~~~~~~~~~~~~~~~~~
Started at: пятница, 14. 05. 2010. - 15:24.48
12 files found
01 -===- F:\Tim Maia - Tim Maia 1972 [flac]\01 - Idade.flac
Extracted successfully
Conclusion: this track is CDDA with probability 100%
Tempfile successfully deleted.
02 -===- F:\Tim Maia - Tim Maia 1972 [flac]\02 - My Little Girl.flac
Extracted successfully
Conclusion: this track is CDDA with probability 100%
Tempfile successfully deleted.
03 -===- F:\Tim Maia - Tim Maia 1972 [flac]\03 - O que voce quer apostar.flac
Extracted successfully
Conclusion: this track is CDDA with probability 100%
Tempfile successfully deleted.
04 -===- F:\Tim Maia - Tim Maia 1972 [flac]\04 - Canario do reino.flac
Extracted successfully
Conclusion: this track is CDDA with probability 100%
Tempfile successfully deleted.
05 -===- F:\Tim Maia - Tim Maia 1972 [flac]\05 - Ja era tempo de voce.flac
Extracted successfully
Conclusion: this track is CDDA with probability 100%
Tempfile successfully deleted.
06 -===- F:\Tim Maia - Tim Maia 1972 [flac]\06 - Where is my other half.flac
Extracted successfully
Conclusion: this track is CDDA with probability 100%
Tempfile successfully deleted.
07 -===- F:\Tim Maia - Tim Maia 1972 [flac]\07 - O que me importa.flac
Extracted successfully
Conclusion: this track is CDDA with probability 100%
Tempfile successfully deleted.
08 -===- F:\Tim Maia - Tim Maia 1972 [flac]\08 - Lamento.flac
Extracted successfully
Conclusion: this track is CDDA with probability 99%
Tempfile successfully deleted.
09 -===- F:\Tim Maia - Tim Maia 1972 [flac]\09 - Sofre.flac
Extracted successfully
Conclusion: this track is CDDA with probability 100%
Tempfile successfully deleted.
10 -===- F:\Tim Maia - Tim Maia 1972 [flac]\10 - Razao de sambar.flac
Extracted successfully
Conclusion: this track is CDDA with probability 100%
Tempfile successfully deleted.
11 -===- F:\Tim Maia - Tim Maia 1972 [flac]\11 - Pelo amor de Deus.flac
Extracted successfully
Conclusion: this track is CDDA with probability 100%
Tempfile successfully deleted.
12 -===- F:\Tim Maia - Tim Maia 1972 [flac]\12 - These are the songs (esta e a cancao).flac
Extracted successfully
Conclusion: this track is CDDA with probability 100%
Tempfile successfully deleted.
Finished at: пятница, 14. 05. 2010. - 15:38.59 (operation time: 0:14.10)

mp3@320 kbps
Сидирую до первых 10-ти скачавших. Далее раздача поддерживается силами скачавших.
Скачали сами - дайте скачать другим.
16:11
314
Нет комментариев. Ваш будет первым!