Поиск

(Brazilian, Bossa Nova, Samba Jazz) Joao Nogueira - Joao Nogueira (1972) - 2008, FLAC (tracks+.cue), lossless

João Nogueira
João Nogueira (1972)
Жанр: Brazilian Jazz, Bossa Nova, Samba
Дата выпуска альбома / диска: 1972 / 2008
Производитель диска: EMI Brazil 234523 2 (c) 2008
Страна: Brazil
Формат: Studio Album
Аудио кодек: FLAC
Тип рипа: tracks+.cue
Битрейт аудио: lossless
Продолжительность: 30:18
Tracklist:
01. Morrendo verso em verso (2:08)
02. Maria Sambamba (2:25)
03. Beto Navalha (2:47)
04. Mãe Solteira (2:51)
05. Alô Madureira (1:59)
06. 7 dia (2:37)
07. Heróis da liberdade (3:05)
08. Mariana da gente (3:15)
09. Pr'um samba (2:19)
10. Meu caminho (2:13)
11. Das 200 para lá (2:37)
12. Blá, blá, blá (2:02)
Рип c оригинала, автор рипа Flabber.
 
EAC log
Exact Audio Copy V0.99 prebeta 5 from 4. May 2009
EAC extraction logfile from 8. January 2010, 18:19
Joao Nogueira / Joao Nogueira
Used drive : TDK CDRW5200B Adapter: 1 ID: 1
Read mode : Secure
Utilize accurate stream : Yes
Defeat audio cache : Yes
Make use of C2 pointers : No
Read offset correction : 6
Overread into Lead-In and Lead-Out : No
Fill up missing offset samples with silence : Yes
Delete leading and trailing silent blocks : No
Null samples used in CRC calculations : Yes
Used interface : Native Win32 interface for Win NT & 2000
Gap handling : Appended to previous track
Used output format : User Defined Encoder
Selected bitrate : 768 kBit/s
Quality : High
Add ID3 tag : No
Command line compressor : C:\Program Files\Exact Audio Copy\FLAC\FLAC.EXE
Additional command line options : -8 -V -T "ARTIST=%a" -T "TITLE=%t" -T "ALBUM=%g" -T "DATE=%y"
-T "TRACKNUMBER=%n" -T "TOTALTRACKS=%x" -T "GENRE=%m" -T "ALBUM ARTIST=%v" -T "ALBUMARTIST=%v"
-T "COMMENT=EAC V0.99 prebeta 4, Secure Mode, Test & Copy, Accurat
TOC of the extracted CD
Track | Start | Length | Start sector | End sector
---------------------------------------------------------
1 | 0:00.00 | 2:08.33 | 0 | 9632
2 | 2:08.33 | 2:25.57 | 9633 | 20564
3 | 4:34.15 | 2:47.45 | 20565 | 33134
4 | 7:21.60 | 2:51.60 | 33135 | 46019
5 | 10:13.45 | 1:59.45 | 46020 | 54989
6 | 12:13.15 | 2:37.48 | 54990 | 66812
7 | 14:50.63 | 3:05.20 | 66813 | 80707
8 | 17:56.08 | 3:15.44 | 80708 | 95376
9 | 21:11.52 | 2:19.53 | 95377 | 105854
10 | 23:31.30 | 2:13.62 | 105855 | 115891
11 | 25:45.17 | 2:37.63 | 115892 | 127729
12 | 28:23.05 | 2:02.43 | 127730 | 136922
Track 1
Filename C:\01 - Morrendo verso em verso.wav
Pre-gap length 0:00:02.00
Peak level 98.1 %
Track quality 100.0 %
Test CRC AA1E8797
Copy CRC AA1E8797
Track not present in AccurateRip database
Copy OK
Track 2
Filename C:\02 - Maria Sambamba.wav
Peak level 97.7 %
Track quality 99.9 %
Test CRC B50A0F6C
Copy CRC B50A0F6C
Track not present in AccurateRip database
Copy OK
Track 3
Filename C:\03 - Beto Navalha.wav
Peak level 96.4 %
Track quality 100.0 %
Test CRC 157EB19F
Copy CRC 157EB19F
Track not present in AccurateRip database
Copy OK
Track 4
Filename C:\04 - Mae Solteira.wav
Peak level 96.9 %
Track quality 100.0 %
Test CRC 217BF891
Copy CRC 217BF891
Track not present in AccurateRip database
Copy OK
Track 5
Filename C:\05 - Alo Madureira.wav
Peak level 96.6 %
Track quality 100.0 %
Test CRC 68A9FCA9
Copy CRC 68A9FCA9
Track not present in AccurateRip database
Copy OK
Track 6
Filename C:\06 - 7 dia.wav
Peak level 97.2 %
Track quality 100.0 %
Test CRC F7EED2BA
Copy CRC F7EED2BA
Track not present in AccurateRip database
Copy OK
Track 7
Filename C:\07 - Herois da liberdade.wav
Peak level 78.5 %
Track quality 99.9 %
Test CRC 4BD25381
Copy CRC 4BD25381
Track not present in AccurateRip database
Copy OK
Track 8
Filename C:\08 - Mariana da gente.wav
Peak level 96.3 %
Track quality 99.9 %
Test CRC 8726E645
Copy CRC 8726E645
Track not present in AccurateRip database
Copy OK
Track 9
Filename C:\09 - Pr'um samba.wav
Peak level 98.4 %
Track quality 100.0 %
Test CRC E0266B3F
Copy CRC E0266B3F
Track not present in AccurateRip database
Copy OK
Track 10
Filename C:\10 - Meu caminho.wav
Peak level 96.4 %
Track quality 99.9 %
Test CRC 8B77F0F8
Copy CRC 8B77F0F8
Track not present in AccurateRip database
Copy OK
Track 11
Filename C:\11 - Das 200 para la.wav
Peak level 98.4 %
Track quality 100.0 %
Test CRC 943D4C83
Copy CRC 943D4C83
Track not present in AccurateRip database
Copy OK
Track 12
Filename C:\12 - Bla, bla, bla.wav
Peak level 97.9 %
Track quality 100.0 %
Test CRC 82E6BC15
Copy CRC 82E6BC15
Track not present in AccurateRip database
Copy OK
None of the tracks are present in the AccurateRip database
No errors occurred
End of status report
 
*.cue
REM GENRE Samba
REM DATE 1972
REM DISCID 9207210C
REM COMMENT "ExactAudioCopy v0.99pb5"
PERFORMER "Joao Nogueira"
TITLE "Joao Nogueira"
FILE "01 - Morrendo verso em verso.wav" WAVE
TRACK 01 AUDIO
TITLE "Morrendo verso em verso"
PERFORMER "Joao Nogueira"
INDEX 01 00:00:00
FILE "02 - Maria Sambamba.wav" WAVE
TRACK 02 AUDIO
TITLE "Maria Sambamba"
PERFORMER "Joao Nogueira"
INDEX 01 00:00:00
FILE "03 - Beto Navalha.wav" WAVE
TRACK 03 AUDIO
TITLE "Beto Navalha"
PERFORMER "Joao Nogueira"
INDEX 01 00:00:00
FILE "04 - Mae Solteira.wav" WAVE
TRACK 04 AUDIO
TITLE "Mae Solteira"
PERFORMER "Joao Nogueira"
INDEX 01 00:00:00
FILE "05 - Alo Madureira.wav" WAVE
TRACK 05 AUDIO
TITLE "Alo Madureira"
PERFORMER "Joao Nogueira"
INDEX 01 00:00:00
FILE "06 - 7 dia.wav" WAVE
TRACK 06 AUDIO
TITLE "7 dia"
PERFORMER "Joao Nogueira"
INDEX 01 00:00:00
FILE "07 - Herois da liberdade.wav" WAVE
TRACK 07 AUDIO
TITLE "Herois da liberdade"
PERFORMER "Joao Nogueira"
INDEX 01 00:00:00
FILE "08 - Mariana da gente.wav" WAVE
TRACK 08 AUDIO
TITLE "Mariana da gente"
PERFORMER "Joao Nogueira"
INDEX 01 00:00:00
FILE "09 - Pr'um samba.wav" WAVE
TRACK 09 AUDIO
TITLE "Pr'um samba"
PERFORMER "Joao Nogueira"
INDEX 01 00:00:00
FILE "10 - Meu caminho.wav" WAVE
TRACK 10 AUDIO
TITLE "Meu caminho"
PERFORMER "Joao Nogueira"
INDEX 01 00:00:00
FILE "11 - Das 200 para la.wav" WAVE
TRACK 11 AUDIO
TITLE "Das 200 para la"
PERFORMER "Joao Nogueira"
INDEX 01 00:00:00
FILE "12 - Bla, bla, bla.wav" WAVE
TRACK 12 AUDIO
TITLE "Bla, bla, bla"
PERFORMER "Joao Nogueira"
INDEX 01 00:00:00
 
Audiochecker’s log
AUDIOCHECKER v2.0 beta (build 457) - by Dester - opdester@freemail.hu
~~~~~~~~~~~~~~~~~~~~~~~~~~~~~~~~~~
Started at: суббота, 17. 04. 2010. - 19:39.33
12 files found
01 -===- F:\Joao Nogueira - Joao Nogueira (1972) [flac]\01 - Morrendo verso em verso.flac
Extracted successfully
Conclusion: this track is CDDA with probability 100%
Tempfile successfully deleted.
02 -===- F:\Joao Nogueira - Joao Nogueira (1972) [flac]\02 - Maria Sambamba.flac
Extracted successfully
Conclusion: this track is CDDA with probability 100%
Tempfile successfully deleted.
03 -===- F:\Joao Nogueira - Joao Nogueira (1972) [flac]\03 - Beto Navalha.flac
Extracted successfully
Conclusion: this track is CDDA with probability 100%
Tempfile successfully deleted.
04 -===- F:\Joao Nogueira - Joao Nogueira (1972) [flac]\04 - Mae Solteira.flac
Extracted successfully
Conclusion: this track is CDDA with probability 100%
Tempfile successfully deleted.
05 -===- F:\Joao Nogueira - Joao Nogueira (1972) [flac]\05 - Alo Madureira.flac
Extracted successfully
Conclusion: this track is CDDA with probability 100%
Tempfile successfully deleted.
06 -===- F:\Joao Nogueira - Joao Nogueira (1972) [flac]\06 - 7 dia.flac
Extracted successfully
Conclusion: this track is CDDA with probability 100%
Tempfile successfully deleted.
07 -===- F:\Joao Nogueira - Joao Nogueira (1972) [flac]\07 - Herois da liberdade.flac
Extracted successfully
Conclusion: this track is CDDA with probability 100%
Tempfile successfully deleted.
08 -===- F:\Joao Nogueira - Joao Nogueira (1972) [flac]\08 - Mariana da gente.flac
Extracted successfully
Conclusion: this track is CDDA with probability 100%
Tempfile successfully deleted.
09 -===- F:\Joao Nogueira - Joao Nogueira (1972) [flac]\09 - Pr'um samba.flac
Extracted successfully
Conclusion: this track is CDDA with probability 100%
Tempfile successfully deleted.
10 -===- F:\Joao Nogueira - Joao Nogueira (1972) [flac]\10 - Meu caminho.flac
Extracted successfully
Conclusion: this track is CDDA with probability 100%
Tempfile successfully deleted.
11 -===- F:\Joao Nogueira - Joao Nogueira (1972) [flac]\11 - Das 200 para la.flac
Extracted successfully
Conclusion: this track is CDDA with probability 100%
Tempfile successfully deleted.
12 -===- F:\Joao Nogueira - Joao Nogueira (1972) [flac]\12 - Bla, bla, bla.flac
Extracted successfully
Conclusion: this track is CDDA with probability 100%
Tempfile successfully deleted.
Finished at: суббота, 17. 04. 2010. - 19:51.58 (operation time: 0:12.25)

Сидирую до первых 10-ти скачавших. Далее раздача поддерживается силами скачавших.
Скачали сами - дайте скачать другим.
16:12
272
Нет комментариев. Ваш будет первым!