Поиск

(Brazilian Jazz,Guitar) Baden Powell - Canto on Guitar - 1970, FLAC (image+.cue), lossless

(Brazilian Jazz,Guitar) Baden Powell - Canto on Guitar - 1970, FLAC (image+.cue), lossless
Треклист:
Baden Powell - Canto on Guitar
Жанр: Brazilian Jazz,Guitar
Год выпуска диска: 1970
Производитель диска: U.S.A.
Аудио кодек: FLAC
Тип рипа: image+.cue
Битрейт аудио: lossless
Продолжительность: 40,28
Трэклист:
1. Samba em preludio 3:08
2. Tres themas da fe afro-brasileira 18:28
3. Marcha escocesa 2:05
4. Tributo a um amigo 6:41
5. Qua quara qua qua 4:11
6. Cegos do nordeste 5:53
All compositions by Baden Powell
Доп. информация:
 
EAC Log
Exact Audio Copy V0.99 prebeta 4 from 23. January 2008
EAC extraction logfile from 11. May 2009, 12:39
Baden Powell / Canto on Guitar
Used drive : _NEC DVD_RW ND-3500AG Adapter: 0 ID: 0
Read mode : Secure
Utilize accurate stream : Yes
Defeat audio cache : Yes
Make use of C2 pointers : No
Read offset correction : 48
Overread into Lead-In and Lead-Out : No
Fill up missing offset samples with silence : Yes
Delete leading and trailing silent blocks : No
Null samples used in CRC calculations : Yes
Used interface : Native Win32 interface for Win NT & 2000
Used output format : User Defined Encoder
Selected bitrate : 768 kBit/s
Quality : High
Add ID3 tag : No
Command line compressor : C:\Program Files\Exact Audio Copy\FLAC\FLAC.EXE
Additional command line options : -6 -V -T "ARTIST=%a" -T "TITLE=%t" -T "ALBUM=%g" -T "DATE=%y" -T "TRACKNUMBER=%n" -T "GENRE=%m" -T "COMMENT=%e" %s -o %d
TOC of the extracted CD
Track | Start | Length | Start sector | End sector
---------------------------------------------------------
1 | 0:00.33 | 3:08.00 | 33 | 14132
2 | 3:08.33 | 18:28.00 | 14133 | 97232
3 | 21:36.33 | 2:05.00 | 97233 | 106607
4 | 23:41.33 | 6:41.00 | 106608 | 136682
5 | 30:22.33 | 4:11.00 | 136683 | 155507
6 | 34:33.33 | 5:54.37 | 155508 | 182094
Range status and errors
Selected range
Filename J:\eMusic\Rip\Baden Powell - Canto on Guitar.wav
Peak level 100.0 %
Range quality 100.0 %
Copy CRC 90328A89
Copy OK
No errors occurred
AccurateRip summary
Track 1 accurately ripped (confidence 2) [C0C82636]
Track 2 accurately ripped (confidence 2) [4E2F727C]
Track 3 accurately ripped (confidence 2) [B08C07C4]
Track 4 accurately ripped (confidence 2) [282CF69C]
Track 5 not present in database
Track 6 not present in database
4 track(s) accurately ripped
2 track(s) not present in the AccurateRip database
Some tracks could not be verified as accurate
End of status report
 
auCDtect
-----------------------
DON'T MODIFY THIS FILE
-----------------------
PERFORMER: auCDtect Task Manager, ver. 1.0.0 Stable build 1.0.0.0
Copyright (c) 2008, 2009 y-soft. All rights reserved
http://y-soft.110mb.com
ANALYZER: auCDtect: CD records authenticity detector, version 0.8.2
Copyright (c) 2004 Oleg Berngardt. All rights reserved.
Copyright (c) 2004 Alexander Djourik. All rights reserved.
FILE: Baden Powell - Canto on Guitar.flac
Size: 217498791 Hash: 808D838D94D75E297F7357FB897D57AD Accuracy: -m0
Conclusion: CDDA 99%
Signature: F843316C96E6B6E77B54DE630FA512712AD66816
 
Personnel
Baden Powell (Guitar and Vocal)
Aflredo Bessa (Atabaque, Berimbau and Guica)
Helio Schiaro (Drums)
Ernesto Ribero Gonsalves (Bass and Caxixi)
Рип из другого ресурса.Все спасибо into09
 
И ещё - обратите внимание,пожалуйста
Прошу обратить внимание на то, что весь материал, представленный выше, предназначен исключительно для ознакомления! Приобретайте, пожалуйста, легальные диски, которые вне всякого сомнения станут достойным украшением вашей коллекции! В соответствие с ФЗ "Об авторском праве и смежных правах", Вы должны удалить все вышеозначенные трэки со своего жесткого диска и иных носителей сразу после ознакомления.
Download available for power users only.
08:40
297
Нет комментариев. Ваш будет первым!