Поиск

(Contemporary Jazz / World Fusion) Richard Bona - The Ten Shades of Blues - 2009, FLAC (tracks+.cue), lossless

Треклист:
Richard Bona - The Ten Shades of Blues
Жанр: Contemporary Jazz / World Fusion
Год выпуска : 2009
Лейбл: Wrasse Records
Аудио кодек: FLAC
Тип рипа: tracks+.cue
Битрейт аудио: lossless
Продолжительность: 00:48:58
Рип: What CD


01. Take One (0:53)
02. Shiva Mantra (5:48)
03. Good Times (4:32)
04. M'Bemba Mama (4:04)
05. Kurumalete (5:03)
06. Souleymane (4:58)
07. African Cowboy (5:05)
08. Esukudu (4:35)
09. Yara's Blues (4:16)
10. Sona Moyo (4:56)
11. Camer Secrets (4:47)

 
EAC
EAC extraction logfile from 31. October 2009, 13:33 for CD
Richard Bona / Ten Shades of Blues
Used drive : TSSTcorpCD/DVDW SH-S182D Adapter: 5 ID: 0
Read mode : Secure with NO C2, accurate stream, disable cache
Read offset correction : 6
Overread into Lead-In and Lead-Out : No
Used output format : C:\Programs\EAC\Encoders\Flac\flac.exe (User Defined Encoder)
32 kBit/s
Additional command line options : -V -8 -T "artist=%a" -T "title=%t" -T "album=%g" -T "date=%y" -T "tracknumber=%n" -T "genre=%m" %s -T"comment=EAC (secure mode) / FLAC 1.1.4 - by manfred"
Other options :
Fill up missing offset samples with silence : Yes
Delete leading and trailing silent blocks : No
Installed external ASPI interface
Track 1
Filename C:\Users\Marius\Music\Richard Bona - Ten Shades of Blues (2009) [FLAC]\01 - Take One.wav
Pre-gap length 0:00:02.00
Peak level 95.3 %
Track quality 100.0 %
Test CRC 4ECC5BED
Copy CRC 4ECC5BED
Copy OK
Track 2
Filename C:\Users\Marius\Music\Richard Bona - Ten Shades of Blues (2009) [FLAC]\02 - Shiva Mantra.wav
Peak level 97.6 %
Track quality 99.9 %
Test CRC 35CB19D7
Copy CRC 35CB19D7
Copy OK
Track 3
Filename C:\Users\Marius\Music\Richard Bona - Ten Shades of Blues (2009) [FLAC]\03 - Good Times.wav
Peak level 99.7 %
Track quality 100.0 %
Test CRC 84E018BB
Copy CRC 84E018BB
Copy OK
Track 4
Filename C:\Users\Marius\Music\Richard Bona - Ten Shades of Blues (2009) [FLAC]\04 - M'Bemba Mama.wav
Peak level 95.4 %
Track quality 100.0 %
Test CRC 7C094A1B
Copy CRC 7C094A1B
Copy OK
Track 5
Filename C:\Users\Marius\Music\Richard Bona - Ten Shades of Blues (2009) [FLAC]\05 - Kurumalete.wav
Peak level 99.8 %
Track quality 100.0 %
Test CRC DE4B857F
Copy CRC DE4B857F
Copy OK
Track 6
Filename C:\Users\Marius\Music\Richard Bona - Ten Shades of Blues (2009) [FLAC]\06 - Souleymane.wav
Peak level 99.8 %
Track quality 99.9 %
Test CRC 108EE854
Copy CRC 108EE854
Copy OK
Track 7
Filename C:\Users\Marius\Music\Richard Bona - Ten Shades of Blues (2009) [FLAC]\07 - African Cowboy.wav
Peak level 95.7 %
Track quality 99.9 %
Test CRC 1BE75DA4
Copy CRC 1BE75DA4
Copy OK
Track 8
Filename C:\Users\Marius\Music\Richard Bona - Ten Shades of Blues (2009) [FLAC]\08 - Esukudu.wav
Peak level 95.3 %
Track quality 100.0 %
Test CRC 76753EEC
Copy CRC 76753EEC
Copy OK
Track 9
Filename C:\Users\Marius\Music\Richard Bona - Ten Shades of Blues (2009) [FLAC]\09 - Yara's Blues.wav
Peak level 98.4 %
Track quality 100.0 %
Test CRC 517AEF3B
Copy CRC 517AEF3B
Copy OK
Track 10
Filename C:\Users\Marius\Music\Richard Bona - Ten Shades of Blues (2009) [FLAC]\10 - Sona Moyo.wav
Peak level 99.2 %
Track quality 100.0 %
Test CRC 419A882E
Copy CRC 419A882E
Copy OK
Track 11
Filename C:\Users\Marius\Music\Richard Bona - Ten Shades of Blues (2009) [FLAC]\11 - Camer Secrets.wav
Peak level 99.7 %
Track quality 100.0 %
Test CRC 6CD6BA20
Copy CRC 6CD6BA20
Copy OK
No errors occured
End of status report
 
CUE
REM GENRE Jazz
REM DATE 2009
REM DISCID 780B7A0B
REM COMMENT "ExactAudioCopy v0.95b4"
PERFORMER "Richard Bona"
TITLE "Ten Shades of Blues"
FILE "01 - Take One.wav" WAVE
TRACK 01 AUDIO
TITLE "Take One"
PERFORMER "Richard Bona"
INDEX 01 00:00:00
FILE "02 - Shiva Mantra.wav" WAVE
TRACK 02 AUDIO
TITLE "Shiva Mantra"
PERFORMER "Richard Bona"
INDEX 01 00:00:00
FILE "03 - Good Times.wav" WAVE
TRACK 03 AUDIO
TITLE "Good Times"
PERFORMER "Richard Bona"
INDEX 01 00:00:00
FILE "04 - M'Bemba Mama.wav" WAVE
TRACK 04 AUDIO
TITLE "M'Bemba Mama"
PERFORMER "Richard Bona"
INDEX 01 00:00:00
FILE "05 - Kurumalete.wav" WAVE
TRACK 05 AUDIO
TITLE "Kurumalete"
PERFORMER "Richard Bona"
INDEX 01 00:00:00
FILE "06 - Souleymane.wav" WAVE
TRACK 06 AUDIO
TITLE "Souleymane"
PERFORMER "Richard Bona"
INDEX 01 00:00:00
FILE "07 - African Cowboy.wav" WAVE
TRACK 07 AUDIO
TITLE "African Cowboy"
PERFORMER "Richard Bona"
INDEX 01 00:00:00
FILE "08 - Esukudu.wav" WAVE
TRACK 08 AUDIO
TITLE "Esukudu"
PERFORMER "Richard Bona"
INDEX 01 00:00:00
FILE "09 - Yara's Blues.wav" WAVE
TRACK 09 AUDIO
TITLE "Yara's Blues"
PERFORMER "Richard Bona"
INDEX 01 00:00:00
FILE "10 - Sona Moyo.wav" WAVE
TRACK 10 AUDIO
TITLE "Sona Moyo"
PERFORMER "Richard Bona"
INDEX 01 00:00:00
FILE "11 - Camer Secrets.wav" WAVE
TRACK 11 AUDIO
TITLE "Camer Secrets"
PERFORMER "Richard Bona"
INDEX 01 00:00:00
По всем вопросам пишите личное сообщение пользователю M0p94ok.
08:41
210
Нет комментариев. Ваш будет первым!