Вы используете незарегистрированную версию компонента "Вкладки"!

Поиск

(Brazilian Jazz) [CD] Airto Moreira - Natural Feelings - 1970 (2015 Japan Edition), FLAC (tracks+.cue), lossless

(Brazilian Jazz) [CD] Airto Moreira - Natural Feelings - 1970 (2015 Japan Edition), FLAC (tracks+.cue), lossless
Треклист:
Airto Moreira - Natural Feelings
Жанр: Brazilian Jazz
Носитель: CD
Страна-производитель диска (релиза): Япония
Год издания: 1970 (2015)
Издатель (лейбл): Muzak/Skye
Номер по каталогу: MZCS-1318
Страна исполнителя (группы): США
Аудиокодек: FLAC (*.flac)
Тип рипа: tracks+.cue
Битрейт аудио: lossless
Продолжительность: 36:46
Источник (релизер): ukasoy (what)
Наличие сканов в содержимом раздачи: нет
Треклист:
01. Alue (Purim-Moreira) - 3:35
02. Xibaba (She-ba-ba) (Moreira) - 4:40
03. Terror (Pascoal) - 9:49
04. Bebe (Pascoal) - 3:01
05. Andei (Pascoal) - 3:11
06. Mixing (Moreira) - 4:27
07. The Tunnel (Pascoal) - 3:04
08. Frevo (Pascoal) - 2:39
09. Liamba (Moreira) - 2:20
Состав:
Airto Moreira - percussion, vocals, drums
Hermeto Pascoal - piano, organ, harpsichord, flute
Sivuca - guitar
Flora Purim - vocals
Ron Carter - bass
Recorded at A&R Recording Studios, New York.
 
Лог создания рипа
Exact Audio Copy V1.0 beta 3 from 29. August 2011
EAC extraction logfile from 7. December 2015, 23:11
Airto Moreira / Natural Feelings
Used drive : HL-DT-STDVDRAM GH24NS50 Adapter: 5 ID: 0
Read mode : Secure
Utilize accurate stream : Yes
Defeat audio cache : Yes
Make use of C2 pointers : No
Read offset correction : 667
Overread into Lead-In and Lead-Out : No
Fill up missing offset samples with silence : Yes
Delete leading and trailing silent blocks : No
Null samples used in CRC calculations : Yes
Used interface : Native Win32 interface for Win NT & 2000
Gap handling : Appended to previous track
Used output format : User Defined Encoder
Selected bitrate : 1024 kBit/s
Quality : High
Add ID3 tag : No
Command line compressor : C:\Program Files (x86)\Exact Audio Copy\FLAC\FLAC.EXE
Additional command line options : -8 -V -T "ARTIST=%artist%" -T "TITLE=%title%" -T "ALBUM=%albumtitle%" -T "DATE=%year%" -T "TRACKNUMBER=%tracknr%" -T "GENRE=%genre%" -T "PERFORMER=%albuminterpret%" -T "COMPOSER=%composer%" %haslyrics%--tag-from-file=LYRICS="%lyricsfile%"%haslyrics% -T "ALBUMARTIST=%albumartist%" -T "DISCNUMBER=%cdnumber%" -T "TOTALDISCS=%totalcds%" -T "TOTALTRACKS=%numtracks%" -T "COMMENT=%comment%" %source% -o %dest%
TOC of the extracted CD
Track | Start | Length | Start sector | End sector
---------------------------------------------------------
1 | 0:00.00 | 3:34.52 | 0 | 16101
2 | 3:34.52 | 4:40.06 | 16102 | 37107
3 | 8:14.58 | 9:48.65 | 37108 | 81272
4 | 18:03.48 | 3:00.59 | 81273 | 94831
5 | 21:04.32 | 3:11.23 | 94832 | 109179
6 | 24:15.55 | 4:27.16 | 109180 | 129220
7 | 28:42.71 | 3:03.45 | 129221 | 142990
8 | 31:46.41 | 2:39.17 | 142991 | 154932
9 | 34:25.58 | 2:19.43 | 154933 | 165400
Track 1
Filename K:\EAC\01 - Alue.wav
Pre-gap length 0:00:02.00
Peak level 97.7 %
Extraction speed 1.0 X
Track quality 100.0 %
Test CRC A08EF9F6
Copy CRC A08EF9F6
Cannot be verified as accurate (confidence 1) [C76147E0], AccurateRip returned [CFCEE3FE] (AR v2)
Copy OK
Track 2
Filename K:\EAC\02 - Xibaba (She-ba-ba).wav
Pre-gap length 0:00:02.00
Peak level 97.7 %
Extraction speed 1.1 X
Track quality 100.0 %
Test CRC AB0B35F7
Copy CRC AB0B35F7
Cannot be verified as accurate (confidence 1) [C6917676], AccurateRip returned [E840CEF0] (AR v2)
Copy OK
Track 3
Filename K:\EAC\03 - Terror.wav
Pre-gap length 0:00:02.00
Peak level 97.7 %
Extraction speed 1.4 X
Track quality 100.0 %
Test CRC 885F93CA
Copy CRC 885F93CA
Cannot be verified as accurate (confidence 1) [EA498723], AccurateRip returned [744E3F29] (AR v2)
Copy OK
Track 4
Filename K:\EAC\04 - Bebé.wav
Pre-gap length 0:00:02.00
Peak level 97.7 %
Extraction speed 1.3 X
Track quality 100.0 %
Test CRC B8223F00
Copy CRC B8223F00
Cannot be verified as accurate (confidence 1) [4F195E28], AccurateRip returned [B19FE97E] (AR v2)
Copy OK
Track 5
Filename K:\EAC\05 - Andei.wav
Pre-gap length 0:00:02.00
Peak level 97.7 %
Extraction speed 1.5 X
Track quality 100.0 %
Test CRC A84CD180
Copy CRC A84CD180
Cannot be verified as accurate (confidence 1) [FC559ACF], AccurateRip returned [5BCD536A] (AR v2)
Copy OK
Track 6
Filename K:\EAC\06 - Mixing.wav
Pre-gap length 0:00:02.00
Peak level 92.0 %
Extraction speed 1.4 X
Track quality 99.9 %
Test CRC 58AF50C9
Copy CRC 58AF50C9
Cannot be verified as accurate (confidence 1) [3BFCBC4C], AccurateRip returned [41D67BBE] (AR v2)
Copy OK
Track 7
Filename K:\EAC\07 - The Tunnel.wav
Pre-gap length 0:00:02.00
Peak level 96.6 %
Extraction speed 1.3 X
Track quality 99.9 %
Test CRC DEDFCE43
Copy CRC DEDFCE43
Cannot be verified as accurate (confidence 1) [0D58EBE5], AccurateRip returned [0A905176] (AR v2)
Copy OK
Track 8
Filename K:\EAC\08 - Frevo.wav
Pre-gap length 0:00:02.00
Peak level 89.4 %
Extraction speed 1.6 X
Track quality 100.0 %
Test CRC 9BBA4A02
Copy CRC 9BBA4A02
Cannot be verified as accurate (confidence 1) [32FF9B79], AccurateRip returned [F2DBB6D4] (AR v2)
Copy OK
Track 9
Filename K:\EAC\09 - Liamba.wav
Pre-gap length 0:00:02.00
Peak level 72.0 %
Extraction speed 1.6 X
Track quality 100.0 %
Test CRC E8FC48F3
Copy CRC E8FC48F3
Cannot be verified as accurate (confidence 1) [9DC6B398], AccurateRip returned [9EF3CFA7] (AR v2)
Copy OK
No tracks could be verified as accurate
You may have a different pressing from the one(s) in the database
No errors occurred
End of status report
==== Log checksum 0AD51C5930B19D104691B04B5E6DCD87532C1AA1586967020459DA9656928C32 ====
 
Содержание индексной карты (.CUE)
REM GENRE Jazz
REM DATE 1970
REM DISCID 7B089D09
REM COMMENT "ExactAudioCopy v1.0b3"
PERFORMER "Airto Moreira"
TITLE "Natural Feelings"
FILE "01 - Alue.wav" WAVE
TRACK 01 AUDIO
TITLE "Alue"
PERFORMER "Airto Moreira"
INDEX 01 00:00:00
TRACK 02 AUDIO
TITLE "Xibaba (She-ba-ba)"
PERFORMER "Airto Moreira"
INDEX 00 03:32:52
FILE "02 - Xibaba (She-ba-ba).wav" WAVE
INDEX 01 00:00:00
TRACK 03 AUDIO
TITLE "Terror"
PERFORMER "Airto Moreira"
INDEX 00 04:38:06
FILE "03 - Terror.wav" WAVE
INDEX 01 00:00:00
TRACK 04 AUDIO
TITLE "Bebe"
PERFORMER "Airto Moreira"
INDEX 00 09:46:65
FILE "04 - Bebe.wav" WAVE
INDEX 01 00:00:00
TRACK 05 AUDIO
TITLE "Andei"
PERFORMER "Airto Moreira"
INDEX 00 02:58:59
FILE "05 - Andei.wav" WAVE
INDEX 01 00:00:00
TRACK 06 AUDIO
TITLE "Mixing"
PERFORMER "Airto Moreira"
INDEX 00 03:09:23
FILE "06 - Mixing.wav" WAVE
INDEX 01 00:00:00
TRACK 07 AUDIO
TITLE "The Tunnel"
PERFORMER "Airto Moreira"
INDEX 00 04:25:16
FILE "07 - The Tunnel.wav" WAVE
INDEX 01 00:00:00
TRACK 08 AUDIO
TITLE "Frevo"
PERFORMER "Airto Moreira"
INDEX 00 03:01:45
FILE "08 - Frevo.wav" WAVE
INDEX 01 00:00:00
TRACK 09 AUDIO
TITLE "Liamba"
PERFORMER "Airto Moreira"
INDEX 00 02:37:17
FILE "09 - Liamba.wav" WAVE
INDEX 01 00:00:00
 
Отчет CUETools
[CUETools log; Date: 23.12.2015 0:12:17; Version: 2.1.5]
[CTDB TOCID: _l2h2KlB4wtvCj1KxT7yF9BsjPg-] disk not present in database.
[AccurateRip ID: 000e34e1-00662757-7b089d09] found.
Track [ CRC | V2 ] Status
01 [a2c18780|c76147e0] (0+0/1) No match
02 [f4569561|c6917676] (0+0/1) No match
03 [7a411d09|ea498723] (0+0/1) No match
04 [99661abf|4f195e28] (0+0/1) No match
05 [5d89073f|fc559acf] (0+0/1) No match
06 [1ce92408|3bfcbc4c] (0+0/1) No match
07 [d7965d5c|0d58ebe5] (0+0/1) No match
08 [5c3b0984|32ff9b79] (0+0/1) No match
09 [43664140|9dc6b398] (0+0/1) No match
Offsetted by -1317:
01 [cfcee3fe] (1/1) Accurately ripped
02 [e840cef0] (1/1) Accurately ripped
03 [744e3f29] (1/1) Accurately ripped
04 [b19fe97e] (1/1) Accurately ripped
05 [5bcd536a] (1/1) Accurately ripped
06 [41d67bbe] (1/1) Accurately ripped
07 [0a905176] (1/1) Accurately ripped
08 [f2dbb6d4] (1/1) Accurately ripped
09 [9ef3cfa7] (1/1) Accurately ripped
Track Peak [ CRC32 ] [W/O NULL] [ LOG ]
-- 97,7 [48CAFAE3] [DC11879A]
01 97,7 [A08EF9F6] [446DC2C9] CRC32
02 97,7 [AB0B35F7] [775A52DE] CRC32
03 97,7 [885F93CA] [27DA44B2] CRC32
04 97,7 [B8223F00] [DE3ACF43] CRC32
05 97,7 [A84CD180] [18A90333] CRC32
06 92,0 [58AF50C9] [B18DF71F] CRC32
07 96,6 [DEDFCE43] [2E08B370] CRC32
08 89,4 [9BBA4A02] [374E39AB] CRC32
09 72,0 [E8FC48F3] [5948266C] CRC32
 
Об альбоме (сборнике)
This is a recording session that I would like to take part. No matter what doing there, serving coffee, shining shoes, whatever.
We have here the first album recorded by Airto Moreira in US, featuring Flora Purim, Hermeto Pascoal, Sivuca, Ron Carter and Gary McFarland as producer, a constellation of top-notch musicians at their peak. And the most incredible fact about this album, Natural Feelings never had a CD reissue, as far as I could search. Let’s see.
This is Airto Moreira – Natural Feelings (1970), for Buddah Records. It is nice to see the back cover with recording session photos showing Hermeto Pascoal and Sivuca on a very young age. Hermeto had a short hair and I would not recognize him. This cover artwork is also amazing and it is provided with a very nice scan, you will spend several minutes navigating on each detail. I’m not versed on Airto Moreira discography, and if the other records he made are such like this one, it really worth to start a series on Airto Moreira. Anyway, I will let you with this surprisingly album.
-- Loronix
Any questions - support@pro-jazz.com.
Есть вопросы - support@pro-jazz.com
20:09
364
Нет комментариев. Ваш будет первым!