Поиск

(Brazilian Jazz, Bossa Nova, Vocal Jazz) [CD] Joyce - Encontro Marcado - 1969 (2014 Japan Edition), FLAC (tracks+.cue), lossless

(Brazilian Jazz, Bossa Nova, Vocal Jazz) [CD] Joyce - Encontro Marcado - 1969 (2014 Japan Edition), FLAC (tracks+.cue), lossless
Треклист:
Joyce - Encontro Marcado
Жанр: Brazilian Jazz, Bossa Nova, Vocal Jazz
Носитель: CD
Страна-производитель диска (релиза): Япония
Год издания: 1969 (2014)
Издатель (лейбл): Mercury/Universal
Номер по каталогу: UICY-76451
Страна исполнителя (группы): Бразилия
Аудиокодек: FLAC (*.flac)
Тип рипа: tracks+.cue
Битрейт аудио: lossless
Продолжительность: 25:40
Источник (релизер): ukasoy (what)
Наличие сканов в содержимом раздачи: нет
Треклист:
01. Adam, Adam (D.P.) - 2:03
02. Encontro Marcado (Joyce) - 2:30
03. Bom Dia (Gil-Caymmi) - 2:34
04. Copacabana, Velha de Guerra (Joyce-Flaksman) - 3:20
05. Como Vai, Vai Bem? (Angelo) - 1:42
06. Asa-Branca (Gonzaga-Teixeira) - 2:14
07. Longe do Tempo (Caymmi-Padua) - 2:21
08. A Saudade Mata a Gente (Almeida-De Barro) - 2:06
09. Preparando um Luminoso (Joyce-Capinan) - 2:07
10. Pra Saber de Nada (Joyce) - 2:42
11. Caminho pro Sol (Angelo-Flaksman) - 2:01
 
Лог создания рипа
Exact Audio Copy V1.0 beta 3 from 29. August 2011
EAC extraction logfile from 8. December 2015, 0:27
Joyce / Encontro Marcado
Used drive : HL-DT-STDVDRAM GH24NS50 Adapter: 5 ID: 0
Read mode : Secure
Utilize accurate stream : Yes
Defeat audio cache : Yes
Make use of C2 pointers : No
Read offset correction : 667
Overread into Lead-In and Lead-Out : No
Fill up missing offset samples with silence : Yes
Delete leading and trailing silent blocks : No
Null samples used in CRC calculations : Yes
Used interface : Native Win32 interface for Win NT & 2000
Gap handling : Appended to previous track
Used output format : User Defined Encoder
Selected bitrate : 1024 kBit/s
Quality : High
Add ID3 tag : No
Command line compressor : C:\Program Files (x86)\Exact Audio Copy\FLAC\FLAC.EXE
Additional command line options : -8 -V -T "ARTIST=%artist%" -T "TITLE=%title%" -T "ALBUM=%albumtitle%" -T "DATE=%year%" -T "TRACKNUMBER=%tracknr%" -T "GENRE=%genre%" -T "PERFORMER=%albuminterpret%" -T "COMPOSER=%composer%" %haslyrics%--tag-from-file=LYRICS="%lyricsfile%"%haslyrics% -T "ALBUMARTIST=%albumartist%" -T "DISCNUMBER=%cdnumber%" -T "TOTALDISCS=%totalcds%" -T "TOTALTRACKS=%numtracks%" -T "COMMENT=%comment%" %source% -o %dest%
TOC of the extracted CD
Track | Start | Length | Start sector | End sector
---------------------------------------------------------
1 | 0:00.00 | 2:03.07 | 0 | 9231
2 | 2:03.07 | 2:30.33 | 9232 | 20514
3 | 4:33.40 | 2:33.42 | 20515 | 32031
4 | 7:07.07 | 3:19.55 | 32032 | 47011
5 | 10:26.62 | 1:41.50 | 47012 | 54636
6 | 12:08.37 | 2:14.03 | 54637 | 64689
7 | 14:22.40 | 2:21.17 | 64690 | 75281
8 | 16:43.57 | 2:06.20 | 75282 | 84751
9 | 18:50.02 | 2:06.38 | 84752 | 94239
10 | 20:56.40 | 2:42.10 | 94240 | 106399
11 | 23:38.50 | 2:01.10 | 106400 | 115484
Track 1
Filename K:\EAC\01 - Adam, Adam.wav
Pre-gap length 0:00:02.00
Peak level 93.3 %
Extraction speed 0.8 X
Track quality 100.0 %
Test CRC 2FE038AA
Copy CRC 2FE038AA
Accurately ripped (confidence 2) [810A1E43] (AR v2)
Copy OK
Track 2
Filename K:\EAC\02 - Encontro Marcado.wav
Pre-gap length 0:00:01.70
Peak level 97.6 %
Extraction speed 1.0 X
Track quality 100.0 %
Test CRC 0B468981
Copy CRC 0B468981
Accurately ripped (confidence 2) [C8FCCB1C] (AR v2)
Copy OK
Track 3
Filename K:\EAC\03 - Bom Dia.wav
Pre-gap length 0:00:02.22
Peak level 97.6 %
Extraction speed 1.0 X
Track quality 100.0 %
Test CRC D3A67DB7
Copy CRC D3A67DB7
Accurately ripped (confidence 2) [27595870] (AR v2)
Copy OK
Track 4
Filename K:\EAC\04 - Copacabana Velha De Guerra.wav
Pre-gap length 0:00:02.65
Peak level 97.6 %
Extraction speed 1.1 X
Track quality 100.0 %
Test CRC 686D0C31
Copy CRC 686D0C31
Accurately ripped (confidence 2) [8E1C6DCE] (AR v2)
Copy OK
Track 5
Filename K:\EAC\05 - Como Vai, Vai Bem.wav
Pre-gap length 0:00:01.72
Peak level 97.7 %
Extraction speed 1.1 X
Track quality 100.0 %
Test CRC 884F12D9
Copy CRC 884F12D9
Accurately ripped (confidence 2) [22B4EF05] (AR v2)
Copy OK
Track 6
Filename K:\EAC\06 - Asa Branca.wav
Pre-gap length 0:00:03.35
Peak level 94.3 %
Extraction speed 1.1 X
Track quality 100.0 %
Test CRC 71710BF9
Copy CRC 71710BF9
Accurately ripped (confidence 2) [F9D61D6B] (AR v2)
Copy OK
Track 7
Filename K:\EAC\07 - Longe Do Tempo.wav
Pre-gap length 0:00:03.42
Peak level 96.4 %
Extraction speed 1.2 X
Track quality 100.0 %
Test CRC 77389CE5
Copy CRC 77389CE5
Accurately ripped (confidence 2) [73E6B6E7] (AR v2)
Copy OK
Track 8
Filename K:\EAC\08 - A Saudade Mata A Gente.wav
Pre-gap length 0:00:03.30
Peak level 97.6 %
Extraction speed 1.3 X
Track quality 100.0 %
Test CRC A984F30C
Copy CRC A984F30C
Accurately ripped (confidence 2) [EDDDE18C] (AR v2)
Copy OK
Track 9
Filename K:\EAC\09 - Preparando Um Luminoso.wav
Pre-gap length 0:00:03.50
Peak level 95.1 %
Extraction speed 1.0 X
Track quality 99.9 %
Test CRC 28853B99
Copy CRC 28853B99
Accurately ripped (confidence 2) [18611BD2] (AR v2)
Copy OK
Track 10
Filename K:\EAC\10 - Pra Saber De Nada.wav
Pre-gap length 0:00:03.67
Peak level 99.9 %
Extraction speed 1.4 X
Track quality 100.0 %
Test CRC F64D2728
Copy CRC F64D2728
Accurately ripped (confidence 2) [DF3DC301] (AR v2)
Copy OK
Track 11
Filename K:\EAC\11 - Caminho Pro Sol.wav
Pre-gap length 0:00:03.12
Peak level 92.1 %
Extraction speed 1.4 X
Track quality 100.0 %
Test CRC 7C9FCF92
Copy CRC 7C9FCF92
Accurately ripped (confidence 2) [5B573BEA] (AR v2)
Copy OK
All tracks accurately ripped
No errors occurred
End of status report
==== Log checksum B0CDEA636C9ED4ABAE985F3F5754C3FFDFDDE5CA4390976848D48EDBA89F2468 ====
 
Содержание индексной карты (.CUE)
REM GENRE Jazz
REM DATE 1969
REM DISCID 7706030B
REM COMMENT "ExactAudioCopy v1.0b3"
PERFORMER "Joyce"
TITLE "Encontro Marcado"
FILE "01 - Adam, Adam.wav" WAVE
TRACK 01 AUDIO
TITLE "Adam, Adam"
PERFORMER "Joyce"
INDEX 01 00:00:00
TRACK 02 AUDIO
TITLE "Encontro Marcado"
PERFORMER "Joyce"
INDEX 00 02:01:12
FILE "02 - Encontro Marcado.wav" WAVE
INDEX 01 00:00:00
TRACK 03 AUDIO
TITLE "Bom Dia"
PERFORMER "Joyce"
INDEX 00 02:28:11
FILE "03 - Bom Dia.wav" WAVE
INDEX 01 00:00:00
TRACK 04 AUDIO
TITLE "Copacabana, Velha de Guerra"
PERFORMER "Joyce"
INDEX 00 02:30:52
FILE "04 - Copacabana, Velha de Guerra.wav" WAVE
INDEX 01 00:00:00
TRACK 05 AUDIO
TITLE "Como Vai, Vai Bem?"
PERFORMER "Joyce"
INDEX 00 03:17:58
FILE "05 - Como Vai, Vai Bem.wav" WAVE
INDEX 01 00:00:00
TRACK 06 AUDIO
TITLE "Asa-Branca"
PERFORMER "Joyce"
INDEX 00 01:38:15
FILE "06 - Asa-Branca.wav" WAVE
INDEX 01 00:00:00
TRACK 07 AUDIO
TITLE "Longe do Tempo"
PERFORMER "Joyce"
INDEX 00 02:10:36
FILE "07 - Longe do Tempo.wav" WAVE
INDEX 01 00:00:00
TRACK 08 AUDIO
TITLE "A Saudade Mata a Gente"
PERFORMER "Joyce"
INDEX 00 02:17:62
FILE "08 - A Saudade Mata a Gente.wav" WAVE
INDEX 01 00:00:00
TRACK 09 AUDIO
TITLE "Preparando um Luminoso"
PERFORMER "Joyce"
INDEX 00 02:02:45
FILE "09 - Preparando um Luminoso.wav" WAVE
INDEX 01 00:00:00
TRACK 10 AUDIO
TITLE "Pra Saber de Nada"
PERFORMER "Joyce"
INDEX 00 02:02:46
FILE "10 - Pra Saber de Nada.wav" WAVE
INDEX 01 00:00:00
TRACK 11 AUDIO
TITLE "Caminho pro Sol"
PERFORMER "Joyce"
INDEX 00 02:38:73
FILE "11 - Caminho pro Sol.wav" WAVE
INDEX 01 00:00:00
 
Отчет CUETools
[CUETools log; Date: 23.12.2015 0:38:31; Version: 2.1.5]
[CTDB TOCID: A0f0X7MuB9QICGFJTHQyJYtwPWU-] found.
Track | CTDB Status
1 | (1/1) Accurately ripped
2 | (1/1) Accurately ripped
3 | (1/1) Accurately ripped
4 | (1/1) Accurately ripped
5 | (1/1) Accurately ripped
6 | (1/1) Accurately ripped
7 | (1/1) Accurately ripped
8 | (1/1) Accurately ripped
9 | (1/1) Accurately ripped
10 | (1/1) Accurately ripped
11 | (1/1) Accurately ripped
[AccurateRip ID: 000abf15-005ce346-7706030b] found.
Track [ CRC | V2 ] Status
01 [a27a99f6|810a1e43] (0+2/4) Accurately ripped
02 [9fd5d6bf|c8fccb1c] (0+2/4) Accurately ripped
03 [913f9dd1|27595870] (0+2/4) Accurately ripped
04 [d5559d48|8e1c6dce] (0+2/4) Accurately ripped
05 [aa53e581|22b4ef05] (0+2/4) Accurately ripped
06 [1c21cd3f|f9d61d6b] (0+2/4) Accurately ripped
07 [28ec9529|73e6b6e7] (0+2/4) Accurately ripped
08 [d667211a|eddde18c] (0+2/4) Accurately ripped
09 [2e64a0c1|18611bd2] (0+2/4) Accurately ripped
10 [3c4c3a57|df3dc301] (0+2/4) Accurately ripped
11 [7c316944|5b573bea] (0+2/4) Accurately ripped
Offsetted by 18:
01 [e5fa828a] (2/4) Accurately ripped
02 [003e866d] (2/4) Accurately ripped
03 [07201e73] (2/4) Accurately ripped
04 [5c25cc90] (2/4) Accurately ripped
05 [039646bf] (2/4) Accurately ripped
06 [285ce149] (2/4) Accurately ripped
07 [5f6ae625] (2/4) Accurately ripped
08 [e4a021a0] (2/4) Accurately ripped
09 [e1637097] (2/4) Accurately ripped
10 [ceccbbab] (2/4) Accurately ripped
11 [21b41642] (2/4) Accurately ripped
Track Peak [ CRC32 ] [W/O NULL] [ LOG ]
-- 99,9 [DC6F7962] [CF9331AE]
01 93,3 [2FE038AA] [B86E06BE] CRC32
02 97,6 [0B468981] [A5A12239] CRC32
03 97,6 [D3A67DB7] [8858F57D] CRC32
04 97,6 [686D0C31] [A34777B4] CRC32
05 97,7 [884F12D9] [38C88A71] CRC32
06 94,3 [71710BF9] [469AC025] CRC32
07 96,4 [77389CE5] [2FA939F4] CRC32
08 97,6 [A984F30C] [50B096F8] CRC32
09 95,1 [28853B99] [A1E4E77C] CRC32
10 99,9 [F64D2728] [3289E4B8] CRC32
11 92,1 [7C9FCF92] [2D3A6A78] CRC32
 
Об альбоме (сборнике)
Damn – what a great album! This is Joyce's second solo album – and it's a landmark in Brazilian music, stretching way past the bossa styles of her first release, into a groove that's free, jazzy, and open-ended, a real shift towards the genius of her work in the 70s and 80s. Arrangements are by Luiz Eca of the Tamba Trio – and they have a complicated jazzy approach that really lets Joyce open up as a singer, moving into the sort of territory that you'd expect from artists like Marcos Valle or Elis Regina. The album's a real gem, and it's so rare that it hardly got any global circulation at the time – despite Joyce's later fame at a worldwide level.
20:10
343
Нет комментариев. Ваш будет первым!