Поиск

(Brazilian Jazz, Bossa Nova, Vocal Jazz) Ithamara Koorax - Serenade in Blue: My Favorite Songs - 2000, FLAC (image+.cue), lossless

(Brazilian Jazz, Bossa Nova, Vocal Jazz) Ithamara Koorax - Serenade in Blue: My Favorite Songs - 2000, FLAC (image+.cue), lossless
Треклист:
Ithamara Koorax - Serenade in Blue: My Favorite Songs
Жанр: Brazilian Jazz, Bossa Nova, Vocal Jazz
Страна-производитель диска: Бразилия
Год издания: 2000
Издатель (лейбл): Jazz Station Records
Номер по каталогу: 325912001222
Аудиокодек: FLAC (*.flac)
Тип рипа: image+.cue
Битрейт аудио: lossless
Продолжительность: 57:10
Источник (релизер): seogcg (hqshare)
Наличие сканов в содержимом раздачи: да
Треклист:
01. Cristal (Sperling-Falcao-Moretzsohn) - 3:49
02. Un homme et une femme (Lai-Barough) - 4:58
03. Mas que nada (Ben) - 5:47
04. Serenade in Blue (Warren-Gordon) - 4:26
05. Moon River (Mancini-Mercer) - 4:05
06. Samba de verao (Valle-Valle) - 3:33
07. The Shadow of Your Smile (Mandel-Webster) - 5:48
08. Bonita (Jobim-Gilbert) - 7:03
09. Aquarela do Brasil (Barroso) - 4:48
10. Aranjuez - "Follow me" (Rodrigo-Kretzmer-Shapey) - 4:30
11. Dio come ti amo (Modugno) - 3:42
12. Iluminada (Frederic Chopin's Ballad No.1 in G minor) (Chopin-Sperling-Blanc) - 4:41
 
Лог создания рипа
EAC extraction logfile from 3. June 2006, 2:29 for CD
Ithamara Koorax / Serenade In Blue
Used drive : HL-DT-STRW/DVD GCC-4520B Adapter: 1 ID: 0
Read mode : Secure with NO C2, accurate stream, disable cache
Combined read/write offset correction : 6
Overread into Lead-In and Lead-Out : No
Used output format : Internal WAV Routines
44.100 Hz; 16 Bit; Stereo
Other options :
Fill up missing offset samples with silence : Yes
Delete leading and trailing silent blocks : No
Native Win32 interface for Win NT & 2000
Range status and errors
Selected range
Filename E:\Releases\Ithamara koorax - Serenade in Blue\Ithamara Koorax - Serenade In Blue.wav
Peak level 99.9 %
Range quality 100.0 %
CRC 5586AA38
Copy OK
No errors occured
End of status report
 
Содержание индексной карты (.CUE)
REM GENRE Jazz
REM DATE 2000
REM DISCID B10D660C
REM COMMENT "ExactAudioCopy v0.95b4"
PERFORMER "Ithamara Koorax"
TITLE "Serenade in Blue: My Favorite Songs"
FILE "Ithamara Koorax - Serenade in Blue- My Favorite Songs.wav" WAVE
TRACK 01 AUDIO
TITLE "Cristal"
PERFORMER "Ithamara Koorax"
INDEX 01 00:00:00
TRACK 02 AUDIO
TITLE "Un Homme et Une Femme"
PERFORMER "Ithamara Koorax"
INDEX 01 03:48:65
TRACK 03 AUDIO
TITLE "Mas Que Nada"
PERFORMER "Ithamara Koorax"
INDEX 01 08:46:35
TRACK 04 AUDIO
TITLE "Serenade in Blue"
PERFORMER "Ithamara Koorax"
INDEX 01 14:33:47
TRACK 05 AUDIO
TITLE "Moon River"
PERFORMER "Ithamara Koorax"
INDEX 01 18:59:45
TRACK 06 AUDIO
TITLE "Samba de Verao"
PERFORMER "Ithamara Koorax"
INDEX 01 23:04:40
TRACK 07 AUDIO
TITLE "The Shadow of Your Smile"
PERFORMER "Ithamara Koorax"
INDEX 01 26:37:07
TRACK 08 AUDIO
TITLE "Bonita"
PERFORMER "Ithamara Koorax"
INDEX 00 32:24:30
INDEX 01 32:25:42
TRACK 09 AUDIO
TITLE "Aquarela do Brasil"
PERFORMER "Ithamara Koorax"
INDEX 01 39:28:40
TRACK 10 AUDIO
TITLE "Aranjuez - 'Follow Me'"
PERFORMER "Ithamara Koorax"
INDEX 01 44:16:45
TRACK 11 AUDIO
TITLE "Dio Como Ti Amo"
PERFORMER "Ithamara Koorax"
INDEX 01 48:47:07
TRACK 12 AUDIO
TITLE "Iluminada"
PERFORMER "Ithamara Koorax"
INDEX 01 52:29:37
 
Отчет CUETools
[CUETools log; Date: 20.05.2013 16:00:40; Version: 2.1.4]
[CTDB TOCID: h8FIdLkK_SvpV5sYG5DyidznChU-] disk not present in database.
[AccurateRip ID: 00197012-00eee580-b10d660c] disk not present in database.
Track Peak [ CRC32 ] [W/O NULL] [ LOG ]
-- 99,9 [5586AA38] [36786E8D] CRC32
01 91,9 [74105B49] [2C2B013E]
02 94,4 [439E8EEE] [72E7AFE4]
03 94,4 [6FC8A973] [16B5575C]
04 94,4 [83012DA6] [64430FC5]
05 86,9 [867E0A81] [67A19078]
06 85,4 [531CB169] [78C7EEC5]
07 94,4 [82BCBA6D] [027CD9AA]
08 99,9 [835F32CE] [8EA6B611]
09 94,4 [DA75B86F] [D2BEE4F2]
10 94,4 [7C38C1DF] [C2E1586C]
11 76,1 [144E6D56] [2CBDB4AF]
12 93,4 [2DC7BFD6] [DE41E2A5]
 
Review by Thom Jurek
The third issue of Brazilian jazz singer Ithamara Koorax's lovely and tempestuous Serenade in Blue: My Favorite Songs is a mark of just what kind of authority she carries as a vocalist and an interpreter of classic material. The album was produced by Arnaldo DeSouteiro and Deodato, and features a venerable -- even legendary -- cast of players, including countrymen Dom Um Romao, Airto, Nelson Ângelo, Marcos Valle, Azymuth, Cuban pianist Gonzalo Rubalcaba, and guitarist Jay Berliner, among others. Koorax's selection of material is as stunning as it is challenging. Here is one of the finest, most innovative reads of "Ma Que Nada" ever committed to tape, and her version of Valle's "Samba de Verão" does the composer proud. Also, her beautifully sultry take on Ary Baroso's "Aquarela Do Brasil" is a sleek and sexy party anthem. Likewise, the standards, such as her deeply moving version of Henry Mancini's "Moon River," featuring the glorious harp of Cristina Braga, places the tune in an entirely new context. The contemporary performance of Johnny Mercer's "Shadow of Your Smile" moves the song into another dimension. While Love Dance extended Koorax's reputation to Anglo audiences, Serenade in Blue is no less important.
 
Состав
Ithamara Koorax - vocals
Jay Berliner - guitar
Ary Sperling - acoustic guitar, keyboards, programming
Rogerio Meanda - electric guitar
Cristina Braga - harp
Carlos Malta - flute, saxophone
Gonzalo Rubalcaba - piano
Marcos Valle - electric piano, keyboards
Jose Roberto Bertrami - Fender Rhodes piano, synthesizer
Fabio Fonseca - Fender Rhodes piano, mini-Moog synthesizer, programming
Deodato - keyboards, programming
Alex Malheiros - electric bass
Dom Um Romao - drums, percussion
Ivan Conti - drums
Laudir DeOliveira, Arnaldo DeSouteiro - percussion
Kevin Jasper - programming
11:57
306
Нет комментариев. Ваш будет первым!