Поиск

(Bossa Nova) Stan Getz - Stan Getz meets Joao & Astrud Gilberto - 1964 (1989, Giants of Jazz - Immortal Concerts), FLAC (image+.cue), lossless

(Bossa Nova) Stan Getz - Stan Getz meets Joao & Astrud Gilberto - 1964 (1989, Giants of Jazz - Immortal Concerts), FLAC (image+.cue), lossless
Треклист:
Stan Getz - Stan Getz meets Joao & Astrud Gilberto
Жанр: Bossa Nova
Страна-производитель диска: Италия
Год издания: 1964 (1989)
Издатель (лейбл): Giants of Jazz/Joker Tonverlag A.G.
Номер по каталогу: CD 53021
Аудиокодек: FLAC (*.flac)
Тип рипа: image+.cue
Битрейт аудио: lossless
Продолжительность: 70:25
Источник (релизер): диск из моей коллекции
Наличие сканов в содержимом раздачи: да
Треклист:
01. Corcovado (Quiet Nights) (Jobim-Lees) - 2:47
02. O Pato (Silva-Teixeira) - 2:26
03. It Might as Well Be Spring (Rodgers-Hammerstein) - 4:37
04. Samba de Minha Terra (Caymmi) - 3:09
05. One Note Samba (Jobim-Mendonca-Hendricks) - 3:22
06. Tonight I Shall Sleep with a Smile on My Face (Ellington-Ellington-Gordon) - 2:48
07. Bim Bom (Gilberto) - 2:08
08. The Singing Song (Burton) - 3:45
09. The Telephone Song (Menescal-Bascoli-Gimbel) - 1:59
10. Here's That Rainy Day (Burke-Van Heusen) - 6:20
11. Eu e Voce (Lyra-De Moraes) - 2:35
12. Rosa Moreno (Caymmi) - 4:07
13. Grandfather's Waltz (Farnlof-Lees) - 4:44
14. Only Trust Your Heart (Carter-Cahn) - 4:29
15. Um Abraco No Bonfa (Gilberto) - 2:53
16. Stan's Blues (Getz) - 4:45
17. Meditation (Jobim-Mendonca-Gimbel) - 4:02
18. Summertime (Gershwin) - 8:11
19. Six-Nix-Pix-Flix (Burton) - 1:17
 
Лог создания рипа
Exact Audio Copy V1.0 beta 3 from 29. August 2011
EAC extraction logfile from 21. May 2013, 1:14
Stan Getz / Stan Getz meets Joao & Astrud Gilberto
Used drive : ASUS DRW-24B1LT Adapter: 5 ID: 1
Read mode : Secure
Utilize accurate stream : Yes
Defeat audio cache : Yes
Make use of C2 pointers : No
Read offset correction : 6
Overread into Lead-In and Lead-Out : No
Fill up missing offset samples with silence : Yes
Delete leading and trailing silent blocks : No
Null samples used in CRC calculations : Yes
Used interface : Native Win32 interface for Win NT & 2000
Used output format : User Defined Encoder
Selected bitrate : 768 kBit/s
Quality : High
Add ID3 tag : No
Command line compressor : C:\Program Files\Exact Audio Copy\Flac\flac.exe
Additional command line options : -8 -V -T "ARTIST=%artist%" -T "TITLE=%title%" -T "ALBUM=%albumtitle%" -T "DATE=%year%" -T "TRACKNUMBER=%tracknr%" -T "TOTALTRACKS=%numtracks%" -T "GENRE=%genre%" -T "ALBUMARTIST=%albumartist%" -T "ALBUM ARTIST=%albumartist%" -T "COMMENT=EAC Secure Mode, Test & Copy, AccurateRip, FLAC -8" %source%
TOC of the extracted CD
Track | Start | Length | Start sector | End sector
---------------------------------------------------------
1 | 0:00.33 | 2:46.60 | 33 | 12542
2 | 2:47.18 | 2:26.10 | 12543 | 23502
3 | 5:13.28 | 4:36.72 | 23503 | 44274
4 | 9:50.25 | 3:09.05 | 44275 | 58454
5 | 12:59.30 | 3:22.13 | 58455 | 73617
6 | 16:21.43 | 2:48.02 | 73618 | 86219
7 | 19:09.45 | 2:08.35 | 86220 | 95854
8 | 21:18.05 | 3:45.10 | 95855 | 112739
9 | 25:03.15 | 1:58.48 | 112740 | 121637
10 | 27:01.63 | 6:19.65 | 121638 | 150127
11 | 33:21.53 | 2:35.12 | 150128 | 161764
12 | 35:56.65 | 4:06.50 | 161765 | 180264
13 | 40:03.40 | 4:43.63 | 180265 | 201552
14 | 44:47.28 | 4:29.12 | 201553 | 221739
15 | 49:16.40 | 2:52.70 | 221740 | 234709
16 | 52:09.35 | 4:45.18 | 234710 | 256102
17 | 56:54.53 | 4:02.32 | 256103 | 274284
18 | 60:57.10 | 8:11.10 | 274285 | 311119
19 | 69:08.20 | 1:16.70 | 311120 | 316889
Range status and errors
Selected range
Filename F:\audio\Stan Getz - Stan Getz meets Joao & Astrud Gilberto.wav
Peak level 84.4 %
Extraction speed 6.7 X
Range quality 100.0 %
Test CRC 49746132
Copy CRC 49746132
Copy OK
No errors occurred
AccurateRip summary
Track 1 accurately ripped (confidence 4) [C2D43CAE] (AR v2)
Track 2 accurately ripped (confidence 4) [B41B7A68] (AR v2)
Track 3 accurately ripped (confidence 4) [619BA07E] (AR v2)
Track 4 accurately ripped (confidence 4) [81538A52] (AR v2)
Track 5 accurately ripped (confidence 4) [043A1FB2] (AR v2)
Track 6 accurately ripped (confidence 4) [C25E416F] (AR v2)
Track 7 accurately ripped (confidence 4) [3C31E131] (AR v2)
Track 8 accurately ripped (confidence 4) [0B834CC1] (AR v2)
Track 9 accurately ripped (confidence 4) [9949E505] (AR v2)
Track 10 accurately ripped (confidence 4) [CEB290F3] (AR v2)
Track 11 accurately ripped (confidence 4) [FD1C0A00] (AR v2)
Track 12 accurately ripped (confidence 4) [2D8F2627] (AR v2)
Track 13 accurately ripped (confidence 4) [36C4DED5] (AR v2)
Track 14 accurately ripped (confidence 4) [D9D5AFC1] (AR v2)
Track 15 accurately ripped (confidence 4) [0D826EC5] (AR v2)
Track 16 accurately ripped (confidence 4) [D213D8F3] (AR v2)
Track 17 accurately ripped (confidence 4) [0185A647] (AR v2)
Track 18 accurately ripped (confidence 4) [DFD57C30] (AR v2)
Track 19 accurately ripped (confidence 4) [C5EAB930] (AR v2)
All tracks accurately ripped
End of status report
---- CUETools DB Plugin V2.1.3
[CTDB TOCID: Gyen0Yd5UTARkhOT8KRH7SODt4w-] found, Submit result: discs with pregaps not supported in this protocol version
[df29529e] (1/1) Differs in 45281 samples @00:00:03-00:00:42
You can use CUETools to repair this rip.
==== Log checksum 8AA8566B74EB907FDB7D4A8120698B87EC3DA71A6ABE576071938CB9275889A6 ====
 
Содержание индексной карты (.CUE)
REM GENRE Jazz
REM DATE 1964
REM DISCID 02108113
REM COMMENT "ExactAudioCopy v1.0b3"
PERFORMER "Stan Getz"
TITLE "Stan Getz meets Joao & Astrud Gilberto"
FILE "Stan Getz - Stan Getz meets Joao & Astrud Gilberto.wav" WAVE
TRACK 01 AUDIO
TITLE "Corcovado (Quiet Nights)"
PERFORMER "Stan Getz"
INDEX 00 00:00:00
INDEX 01 00:00:33
TRACK 02 AUDIO
TITLE "O Pato"
PERFORMER "Stan Getz"
INDEX 00 02:46:05
INDEX 01 02:47:18
TRACK 03 AUDIO
TITLE "It Might as Well Be Spring"
PERFORMER "Stan Getz"
INDEX 00 05:11:63
INDEX 01 05:13:28
TRACK 04 AUDIO
TITLE "Samba de Minha Terra"
PERFORMER "Stan Getz"
INDEX 00 09:49:18
INDEX 01 09:50:25
TRACK 05 AUDIO
TITLE "One Note Samba"
PERFORMER "Stan Getz"
INDEX 00 12:58:23
INDEX 01 12:59:30
TRACK 06 AUDIO
TITLE "Tonight I Shall Sleep with a Smile on My Face"
PERFORMER "Stan Getz"
INDEX 00 16:20:28
INDEX 01 16:21:43
TRACK 07 AUDIO
TITLE "Bim Bom"
PERFORMER "Stan Getz"
INDEX 00 19:08:35
INDEX 01 19:09:45
TRACK 08 AUDIO
TITLE "The Singing Song"
PERFORMER "Stan Getz"
INDEX 00 21:16:63
INDEX 01 21:18:05
TRACK 09 AUDIO
TITLE "The Telephone Song"
PERFORMER "Stan Getz"
INDEX 00 25:01:50
INDEX 01 25:03:15
TRACK 10 AUDIO
TITLE "Here's That Rainy Day"
PERFORMER "Stan Getz"
INDEX 00 27:00:28
INDEX 01 27:01:63
TRACK 11 AUDIO
TITLE "Eu e Voce"
PERFORMER "Stan Getz"
INDEX 00 33:20:15
INDEX 01 33:21:53
TRACK 12 AUDIO
TITLE "Rosa Moreno"
PERFORMER "Stan Getz"
INDEX 00 35:55:58
INDEX 01 35:56:65
TRACK 13 AUDIO
TITLE "Grandfather's Waltz"
PERFORMER "Stan Getz"
INDEX 00 40:02:18
INDEX 01 40:03:40
TRACK 14 AUDIO
TITLE "Only Trust Your Heart"
PERFORMER "Stan Getz"
INDEX 00 44:46:20
INDEX 01 44:47:28
TRACK 15 AUDIO
TITLE "Um Abraco No Bonfa"
PERFORMER "Stan Getz"
INDEX 00 49:15:23
INDEX 01 49:16:40
TRACK 16 AUDIO
TITLE "Stan's Blues"
PERFORMER "Stan Getz"
INDEX 00 52:08:40
INDEX 01 52:09:35
TRACK 17 AUDIO
TITLE "Meditation"
PERFORMER "Stan Getz"
INDEX 00 56:53:33
INDEX 01 56:54:53
TRACK 18 AUDIO
TITLE "Summertime"
PERFORMER "Stan Getz"
INDEX 00 60:55:53
INDEX 01 60:57:10
TRACK 19 AUDIO
TITLE "Six-Nix-Pix-Flix"
PERFORMER "Stan Getz"
INDEX 00 69:06:63
INDEX 01 69:08:20
 
Отчет CUETools
[CUETools log; Date: 21.05.2013 1:27:05; Version: 2.1.4]
Pregap length 00:00:33.
[CTDB TOCID: Gyen0Yd5UTARkhOT8KRH7SODt4w-] found.
Track | CTDB Status
1 | (3/3) Accurately ripped
2 | (2/3) Accurately ripped, or (1/3) differs in 7 samples @00:00:30
3 | (3/3) Accurately ripped
4 | (3/3) Accurately ripped
5 | (3/3) Accurately ripped
6 | (3/3) Accurately ripped
7 | (3/3) Accurately ripped
8 | (3/3) Accurately ripped
9 | (3/3) Accurately ripped
10 | (3/3) Accurately ripped
11 | (3/3) Accurately ripped
12 | (3/3) Accurately ripped
13 | (3/3) Accurately ripped
14 | (3/3) Accurately ripped
15 | (3/3) Accurately ripped
16 | (3/3) Accurately ripped
17 | (3/3) Accurately ripped
18 | (2/3) Accurately ripped
19 | (3/3) Accurately ripped
[AccurateRip ID: 002cd25f-0280acff-02108113] found.
Track [ CRC | V2 ] Status
01 [77d593bf|c2d43cae] (23+04/33) Accurately ripped
02 [2a13b922|b41b7a68] (24+04/34) Accurately ripped
03 [7d15e8db|619ba07e] (24+04/34) Accurately ripped
04 [bd3976d7|81538a52] (24+04/34) Accurately ripped
05 [eae4e4ee|043a1fb2] (23+04/33) Accurately ripped
06 [f7121ef5|c25e416f] (24+04/34) Accurately ripped
07 [634291f0|3c31e131] (24+04/34) Accurately ripped
08 [88873ded|0b834cc1] (22+04/32) Accurately ripped
09 [923244ea|9949e505] (23+04/32) Accurately ripped
10 [81b6ad63|ceb290f3] (22+04/32) Accurately ripped
11 [12105506|fd1c0a00] (23+04/33) Accurately ripped
12 [a8e5962f|2d8f2627] (22+04/32) Accurately ripped
13 [9f570d01|36c4ded5] (22+04/32) Accurately ripped
14 [823108fd|d9d5afc1] (23+04/33) Accurately ripped
15 [d1f90664|0d826ec5] (23+04/33) Accurately ripped
16 [c041c83e|d213d8f3] (22+04/32) Accurately ripped
17 [f1f09faf|0185a647] (22+04/32) Accurately ripped
18 [10a2de6c|dfd57c30] (20+04/30) Accurately ripped
19 [80334826|c5eab930] (21+04/31) Accurately ripped
Offsetted by -1178:
01 [63b506bc] (03/33) Accurately ripped
02 [f31414a3] (03/34) Accurately ripped
03 [a4a1a8d0] (03/34) Accurately ripped
04 [e6ba438b] (03/34) Accurately ripped
05 [9147bfda] (03/33) Accurately ripped
06 [ef80b622] (03/34) Accurately ripped
07 [5d1b8ec0] (03/34) Accurately ripped
08 [0ac0f7b0] (03/32) Accurately ripped
09 [35bfdb7b] (02/32) Accurately ripped
10 [18e93e5a] (03/32) Accurately ripped
11 [a385d86b] (03/33) Accurately ripped
12 [ce060467] (03/32) Accurately ripped
13 [434076bd] (03/32) Accurately ripped
14 [378f0a85] (03/33) Accurately ripped
15 [f885f63b] (03/33) Accurately ripped
16 [35a18c7d] (03/32) Accurately ripped
17 [899c66f7] (03/32) Accurately ripped
18 [bbedb23c] (03/30) Accurately ripped
19 [e2245c08] (00/31) No match (V2 was not tested)
Offsetted by -1121:
01 [86bb6d6d] (03/33) Accurately ripped
02 [c496a81d] (03/34) Accurately ripped
03 [46494eba] (03/34) Accurately ripped
04 [f65c005e] (03/34) Accurately ripped
05 [53baf544] (03/33) Accurately ripped
06 [e50d6ad9] (03/34) Accurately ripped
07 [b62449d3] (03/34) Accurately ripped
08 [f944f924] (03/32) Accurately ripped
09 [93c668ee] (03/32) Accurately ripped
10 [1fe445cb] (03/32) Accurately ripped
11 [4d279b7c] (03/33) Accurately ripped
12 [3ad38fc6] (03/32) Accurately ripped
13 [ba586768] (03/32) Accurately ripped
14 [8b1b6607] (03/33) Accurately ripped
15 [99be6b24] (03/33) Accurately ripped
16 [cb74ccde] (03/32) Accurately ripped
17 [5b7d8255] (03/32) Accurately ripped
18 [21c56dfb] (03/30) Accurately ripped
19 [c9c93751] (00/31) No match (V2 was not tested)
Track Peak [ CRC32 ] [W/O NULL] [ LOG ]
-- 84,4 [49746132] [AA7942F1] CRC32
01 74,5 [6F53A6C7] [C0B86B60]
02 67,9 [FF190463] [C914668A]
03 84,1 [0858207C] [655BCF9C]
04 80,0 [FBA761EB] [8AF99F1C]
05 84,4 [18974F59] [8F965985]
06 61,7 [1C73DC5B] [15A29369]
07 72,6 [7C8B0162] [F03C9B6C]
08 79,1 [4356C897] [A56BA39F]
09 78,6 [2262F3C6] [CE4F8B2D]
10 82,3 [1064757F] [58CD9299]
11 74,3 [3C370CF7] [45FDD300]
12 73,7 [2282DC01] [BADA8224]
13 70,3 [B3FBBEF0] [356E85F7]
14 72,5 [76C7ECA3] [96009D72]
15 82,8 [AC6DBE4B] [C2AEFE92]
16 78,8 [D03879A5] [9F31D22C]
17 69,1 [65233C92] [E4D178E1]
18 82,5 [420E265A] [7E59B5E5]
19 82,3 [B105DB7E] [6B7FAAB9]
На замену http://rutracker.org/forum/viewtopic.php?t=1931114
11:58
335
Нет комментариев. Ваш будет первым!