Поиск

(Brazilian Jazz, Bossa Nova, Guitar) Baden Powell - Le Monde Musical de Baden Powell (1964) - 2005, FLAC (tracks+.cue) lossless

Треклист:
Baden Powell
Le Monde Musical De Baden Powell (1964)

Жанр: Brazilian Jazz, Bossa Nova, Guitar | Страна: Brazil
Дата выпуска альбома / диска: 1964 / 2005 | Производитель диска: Universal Music France
Аудио кодек: FLAC | Тип рипа: tracks+.cue | Битрейт аудио: lossless
Формат: Studio Album
Продолжительность: 38:19


Tracklist:
01. Deve Ser Amor (3:54)
02. Choro Para Metronome (3:00)
03. Adagio (3:07)
04. Berimbau (3:03)
05. Samba Em Preludio (3:30)
06. Chanson D Hiver (2:27)
07. Samba Triste (3:33)
08. Berceuse A Jussara (2:37)
09. Prelude (2:54)
10. Euridice (3:05)
11. Bachiana (4:10)
12. Garota De Ipanema (2:59)


Personnel:
Baden Powell - Guitar, Alphonse Masselier - Double Bass, Arthur Motta - Drums,
Silvio Silveira - Percussion, Francoise Waleh - Vocals on "Samba Em Preludio".
accompanied by the Paul Mauriat Orchestra


 
EAC log
Exact Audio Copy V0.99 prebeta 4 from 23. January 2008
EAC extraction logfile from 6. October 2008, 21:34
Baden Powell / Le Monde Musical De Baden Powell
Used drive : PLEXTOR DVDR PX-712A Adapter: 0 ID: 0
Read mode : Secure
Utilize accurate stream : Yes
Defeat audio cache : Yes
Make use of C2 pointers : No
Read offset correction : 30
Overread into Lead-In and Lead-Out : No
Fill up missing offset samples with silence : Yes
Delete leading and trailing silent blocks : No
Null samples used in CRC calculations : Yes
Used interface : Installed external ASPI interface
Gap handling : Appended to previous track
Used output format : User Defined Encoder
Selected bitrate : 320 kBit/s
Quality : High
Add ID3 tag : No
Command line compressor : C:\Program\FLAC\flac.exe
Additional command line options : -V -8 -T "artist=%a" -T "title=%t" -T "album=%g" -T "date=%y"
-T "tracknumber=%n" -T "genre=%m" %s
TOC of the extracted CD
Track | Start | Length | Start sector | End sector
---------------------------------------------------------
1 | 0:00.00 | 3:54.48 | 0 | 17597
2 | 3:54.48 | 3:00.51 | 17598 | 31148
3 | 6:55.24 | 3:07.38 | 31149 | 45211
4 | 10:02.62 | 3:03.26 | 45212 | 58962
5 | 13:06.13 | 3:30.14 | 58963 | 74726
6 | 16:36.27 | 2:27.21 | 74727 | 85772
7 | 19:03.48 | 3:33.06 | 85773 | 101753
8 | 22:36.54 | 2:37.12 | 101754 | 113540
9 | 25:13.66 | 2:54.49 | 113541 | 126639
10 | 28:08.40 | 3:05.22 | 126640 | 140536
11 | 31:13.62 | 4:10.55 | 140537 | 159341
12 | 35:24.42 | 2:59.04 | 159342 | 172770
Track 1
Filename D:\Baden Powell - Le Monde Musical De Baden Powell\01 - Deve Ser Amor.wav
Pre-gap length 0:00:02.00
Peak level 70.7 %
Track quality 100.0 %
Test CRC 1D7AAD33
Copy CRC 1D7AAD33
Accurately ripped (confidence 1) [510BAE88]
Copy OK
Track 2
Filename D:\Baden Powell - Le Monde Musical De Baden Powell\02 - Choro Para Metronome.wav
Pre-gap length 0:00:02.90
Peak level 79.6 %
Track quality 100.0 %
Test CRC 981F9FC3
Copy CRC 981F9FC3
Accurately ripped (confidence 1) [D337BD4E]
Copy OK
Track 3
Filename D:\Baden Powell - Le Monde Musical De Baden Powell\03 - Adagio.wav
Pre-gap length 0:00:03.00
Peak level 78.7 %
Track quality 100.0 %
Test CRC D65D1982
Copy CRC D65D1982
Accurately ripped (confidence 1) [FC543BE7]
Copy OK
Track 4
Filename D:\Baden Powell - Le Monde Musical De Baden Powell\04 - Berimbau.wav
Pre-gap length 0:00:01.82
Peak level 74.7 %
Track quality 100.0 %
Test CRC 43A3BBA4
Copy CRC 43A3BBA4
Accurately ripped (confidence 1) [CCA752E9]
Copy OK
Track 5
Filename D:\Baden Powell - Le Monde Musical De Baden Powell\05 - Samba Em Preludio.wav
Pre-gap length 0:00:01.76
Peak level 77.1 %
Track quality 99.9 %
Test CRC 18A5BF03
Copy CRC 18A5BF03
Accurately ripped (confidence 1) [3906692A]
Copy OK
Track 6
Filename D:\Baden Powell - Le Monde Musical De Baden Powell\06 - Chanson D Hiver.wav
Pre-gap length 0:00:02.18
Peak level 62.4 %
Track quality 100.0 %
Test CRC E4008E55
Copy CRC E4008E55
Accurately ripped (confidence 1) [EADE40A9]
Copy OK
Track 7
Filename D:\Baden Powell - Le Monde Musical De Baden Powell\07 - Samba Triste.wav
Pre-gap length 0:00:01.70
Peak level 72.1 %
Track quality 100.0 %
Test CRC A16BC58B
Copy CRC A16BC58B
Accurately ripped (confidence 1) [A5F748F9]
Copy OK
Track 8
Filename D:\Baden Powell - Le Monde Musical De Baden Powell\08 - Berceuse A Jussara.wav
Pre-gap length 0:00:01.77
Peak level 66.8 %
Track quality 100.0 %
Test CRC 0D554EEB
Copy CRC 0D554EEB
Accurately ripped (confidence 1) [F79CDB49]
Copy OK
Track 9
Filename D:\Baden Powell - Le Monde Musical De Baden Powell\09 - Prelude.wav
Pre-gap length 0:00:01.82
Peak level 73.7 %
Track quality 99.9 %
Test CRC 30CA4DAB
Copy CRC 30CA4DAB
Accurately ripped (confidence 1) [AE8B41E6]
Copy OK
Track 10
Filename D:\Baden Powell - Le Monde Musical De Baden Powell\10 - Euridice.wav
Pre-gap length 0:00:01.80
Peak level 64.5 %
Track quality 99.9 %
Test CRC 00C08C15
Copy CRC 00C08C15
Accurately ripped (confidence 1) [71B8E2F4]
Copy OK
Track 11
Filename D:\Baden Powell - Le Monde Musical De Baden Powell\11 - Bachiana.wav
Pre-gap length 0:00:01.77
Peak level 73.3 %
Track quality 99.9 %
Test CRC 621531AF
Copy CRC 621531AF
Accurately ripped (confidence 1) [01756184]
Copy OK
Track 12
Filename D:\Baden Powell - Le Monde Musical De Baden Powell\12 - Garota De Ipanema.wav
Pre-gap length 0:00:01.66
Peak level 70.6 %
Track quality 100.0 %
Test CRC 69298511
Copy CRC 69298511
Accurately ripped (confidence 1) [8EC47AE7]
Copy OK
All tracks accurately ripped
No errors occurred
End of status report
 
*.cue
REM GENRE Latin
REM DATE 1964
REM DISCID AC08FF0C
REM COMMENT "ExactAudioCopy v0.99pb4"
PERFORMER "Baden Powell"
TITLE "Le Monde Musical De Baden Powell"
FILE "01 - Deve Ser Amor.wav" WAVE
TRACK 01 AUDIO
TITLE "Deve Ser Amor"
PERFORMER "Baden Powell"
INDEX 01 00:00:00
TRACK 02 AUDIO
TITLE "Choro Para Metronome"
PERFORMER "Baden Powell"
INDEX 00 03:51:55
FILE "02 - Choro Para Metronome.wav" WAVE
INDEX 01 00:00:00
TRACK 03 AUDIO
TITLE "Adagio"
PERFORMER "Baden Powell"
INDEX 00 02:57:51
FILE "03 - Adagio.wav" WAVE
INDEX 01 00:00:00
TRACK 04 AUDIO
TITLE "Berimbau"
PERFORMER "Baden Powell"
INDEX 00 03:05:51
FILE "04 - Berimbau.wav" WAVE
INDEX 01 00:00:00
TRACK 05 AUDIO
TITLE "Samba Em Preludio"
PERFORMER "Baden Powell"
INDEX 00 03:01:44
FILE "05 - Samba Em Preludio.wav" WAVE
INDEX 01 00:00:00
TRACK 06 AUDIO
TITLE "Chanson D Hiver"
PERFORMER "Baden Powell"
INDEX 00 03:28:00
FILE "06 - Chanson D Hiver.wav" WAVE
INDEX 01 00:00:00
TRACK 07 AUDIO
TITLE "Samba Triste"
PERFORMER "Baden Powell"
INDEX 00 02:25:43
FILE "07 - Samba Triste.wav" WAVE
INDEX 01 00:00:00
TRACK 08 AUDIO
TITLE "Berceuse A Jussara"
PERFORMER "Baden Powell"
INDEX 00 03:31:23
FILE "08 - Berceuse A Jussara.wav" WAVE
INDEX 01 00:00:00
TRACK 09 AUDIO
TITLE "Prelude"
PERFORMER "Baden Powell"
INDEX 00 02:35:25
FILE "09 - Prelude.wav" WAVE
INDEX 01 00:00:00
TRACK 10 AUDIO
TITLE "Euridice"
PERFORMER "Baden Powell"
INDEX 00 02:52:64
FILE "10 - Euridice.wav" WAVE
INDEX 01 00:00:00
TRACK 11 AUDIO
TITLE "Bachiana"
PERFORMER "Baden Powell"
INDEX 00 03:03:39
FILE "11 - Bachiana.wav" WAVE
INDEX 01 00:00:00
TRACK 12 AUDIO
TITLE "Garota De Ipanema"
PERFORMER "Baden Powell"
INDEX 00 04:09:05
FILE "12 - Garota De Ipanema.wav" WAVE
INDEX 01 00:00:00
 
Audiochecker’s log
AUDIOCHECKER v2.0 beta (build 457) - by Dester - opdester@freemail.hu
~~~~~~~~~~~~~~~~~~~~~~~~~~~~~~~~~~
Started at: воскресенье, 10. 10. 2010. - 16:50.08
12 files found
01 -===- F:\Baden Powell - Le Monde Musical De Baden Powell (1964) [flac]\01 - Deve Ser Amor.flac
Extracted successfully
Conclusion: this track is CDDA with probability 100%
Tempfile successfully deleted.
02 -===- F:\Baden Powell - Le Monde Musical De Baden Powell (1964) [flac]\02 - Choro Para Metronome.flac
Extracted successfully
Conclusion: this track is CDDA with probability 100%
Tempfile successfully deleted.
03 -===- F:\Baden Powell - Le Monde Musical De Baden Powell (1964) [flac]\03 - Adagio.flac
Extracted successfully
Conclusion: this track is CDDA with probability 100%
Tempfile successfully deleted.
04 -===- F:\Baden Powell - Le Monde Musical De Baden Powell (1964) [flac]\04 - Berimbau.flac
Extracted successfully
Conclusion: this track is CDDA with probability 100%
Tempfile successfully deleted.
05 -===- F:\Baden Powell - Le Monde Musical De Baden Powell (1964) [flac]\05 - Samba Em Preludio.flac
Extracted successfully
Conclusion: this track is CDDA with probability 99%
Tempfile successfully deleted.
06 -===- F:\Baden Powell - Le Monde Musical De Baden Powell (1964) [flac]\06 - Chanson D Hiver.flac
Extracted successfully
Conclusion: this track is CDDA with probability 100%
Tempfile successfully deleted.
07 -===- F:\Baden Powell - Le Monde Musical De Baden Powell (1964) [flac]\07 - Samba Triste.flac
Extracted successfully
Conclusion: this track is CDDA with probability 100%
Tempfile successfully deleted.
08 -===- F:\Baden Powell - Le Monde Musical De Baden Powell (1964) [flac]\08 - Berceuse A Jussara.flac
Extracted successfully
Conclusion: this track is CDDA with probability 100%
Tempfile successfully deleted.
09 -===- F:\Baden Powell - Le Monde Musical De Baden Powell (1964) [flac]\09 - Prelude.flac
Extracted successfully
Conclusion: this track is CDDA with probability 100%
Tempfile successfully deleted.
10 -===- F:\Baden Powell - Le Monde Musical De Baden Powell (1964) [flac]\10 - Euridice.flac
Extracted successfully
Conclusion: this track is CDDA with probability 100%
Tempfile successfully deleted.
11 -===- F:\Baden Powell - Le Monde Musical De Baden Powell (1964) [flac]\11 - Bachiana.flac
Extracted successfully
Conclusion: this track is CDDA with probability 100%
Tempfile successfully deleted.
12 -===- F:\Baden Powell - Le Monde Musical De Baden Powell (1964) [flac]\12 - Garota De Ipanema.flac
Extracted successfully
Conclusion: this track is CDDA with probability 100%
Tempfile successfully deleted.
Finished at: воскресенье, 10. 10. 2010. - 17:09.38 (operation time: 0:19.29)

~ Ripped by Flabber
Сидирую до первых 10-ти скачавших. Далее раздача поддерживается силами скачавших.
Скачали сами - дайте скачать другим.
По всем вопросам пишите личное сообщение пользователю M0p94ok.
18:33
202
Нет комментариев. Ваш будет первым!