Поиск

(R&B, Soul, Jazz) Manu Dibango - Choc 'N Soul - 2010, FLAC (tracks+.cue) lossless

Треклист:
Manu Dibango / Choc 'N Soul
Жанр: R&B, Soul, Jazz
Страна-производитель диска: France
Год издания диска: 2010
Издатель (лейбл): Fremeaux & Assoc.Fr
Номер по каталогу: FA 523
Аудио кодек: FLAC (*.flac)
Тип рипа: tracks+.cue
Битрейт аудио: lossless
Продолжительность: 58:53
Источник (релизер): chicopicho
Наличие сканов в содержимом раздачи: да
Треклист:
1. Choc 'N Soul
2. Reggae Markossa
3. Bushman Promenade
4. Mouna Pola
5. Africa Boogie
6. Douala Serenade
7. Happy Feeling
8. Night Jet
9. Ca Va Chouia
10. Goro City
11. Waka Juju
12. Minuit Au Circuit
 
Лог создания рипа
X Lossless Decoder version 20100918 (122.1)
XLD extraction logfile from 2010-09-20 20:43:56 +0200
Manu Dibango / Choc 'N Soul
Used drive : MATSHITA DVD-R UJ-898 (revision HC09)
Use cdparanoia mode : YES (CDParanoia III 10.2 engine)
Disable audio cache : OK for the drive with cache less than 2750KB
Make use of C2 pointers : NO
Read offset correction : 102
Max retry count : 4
Gap status : Analyzed, Appended
TOC of the extracted CD
Track | Start | Length | Start sector | End sector
---------------------------------------------------------
1 | 00:00:00 | 05:19:04 | 0 | 23928
2 | 05:19:04 | 06:37:03 | 23929 | 53706
3 | 11:56:07 | 05:06:21 | 53707 | 76677
4 | 17:02:28 | 05:16:02 | 76678 | 100379
5 | 22:18:30 | 04:18:08 | 100380 | 119737
6 | 26:36:38 | 06:28:18 | 119738 | 148855
7 | 33:04:56 | 06:25:71 | 148856 | 177801
8 | 39:30:52 | 06:44:13 | 177802 | 208114
9 | 46:14:65 | 05:57:71 | 208115 | 234960
10 | 52:12:61 | 08:36:56 | 234961 | 273716
11 | 60:49:42 | 04:49:48 | 273717 | 295439
12 | 65:39:15 | 01:16:64 | 295440 | 301203
All Tracks
Album gain : -2.07 dB
Peak : 0.968628
Track 01
Filename : /Users/Rowdy/Desktop/Manu Dibango - Choc 'N Soul (2010) [FLAC]/01 - Choc 'n Soul.flac
Pre-gap length : 00:02:00
Track gain : -2.41 dB
Peak : 0.809326
CRC32 hash (test run) : 86FE0F51
CRC32 hash : 86FE0F51
CRC32 hash (skip zero) : FD956649
AccurateRip signature : CD49D519
->Track not present in AccurateRip database.
Statistics
Read error : 0
Skipped (treated as error) : 0
Edge jitter error (maybe fixed) : 0
Atom jitter error (maybe fixed) : 0
Drift error (maybe fixed) : 0
Dropped bytes error (maybe fixed) : 0
Duplicated bytes error (maybe fixed) : 0
Inconsistency in error sectors : 0
Track 02
Filename : /Users/Rowdy/Desktop/Manu Dibango - Choc 'N Soul (2010) [FLAC]/02 - Reggae Makossa.flac
Pre-gap length : 00:02:00
Track gain : -2.53 dB
Peak : 0.966675
CRC32 hash (test run) : EC67B90C
CRC32 hash : EC67B90C
CRC32 hash (skip zero) : AC66F09A
AccurateRip signature : 6D993665
->Track not present in AccurateRip database.
Statistics
Read error : 0
Skipped (treated as error) : 0
Edge jitter error (maybe fixed) : 0
Atom jitter error (maybe fixed) : 0
Drift error (maybe fixed) : 0
Dropped bytes error (maybe fixed) : 0
Duplicated bytes error (maybe fixed) : 0
Inconsistency in error sectors : 0
Track 03
Filename : /Users/Rowdy/Desktop/Manu Dibango - Choc 'N Soul (2010) [FLAC]/03 - Bushman Promenade.flac
Pre-gap length : 00:02:00
Track gain : -4.22 dB
Peak : 0.936523
CRC32 hash (test run) : 2B5171A3
CRC32 hash : 2B5171A3
CRC32 hash (skip zero) : 590A4098
AccurateRip signature : 23A637AC
->Track not present in AccurateRip database.
Statistics
Read error : 0
Skipped (treated as error) : 0
Edge jitter error (maybe fixed) : 0
Atom jitter error (maybe fixed) : 0
Drift error (maybe fixed) : 0
Dropped bytes error (maybe fixed) : 0
Duplicated bytes error (maybe fixed) : 0
Inconsistency in error sectors : 0
Track 04
Filename : /Users/Rowdy/Desktop/Manu Dibango - Choc 'N Soul (2010) [FLAC]/04 - Mouna Pola.flac
Pre-gap length : 00:02:00
Track gain : -2.42 dB
Peak : 0.932556
CRC32 hash (test run) : 8DEE8ECF
CRC32 hash : 8DEE8ECF
CRC32 hash (skip zero) : 3053786E
AccurateRip signature : 6251F3BF
->Track not present in AccurateRip database.
Statistics
Read error : 0
Skipped (treated as error) : 0
Edge jitter error (maybe fixed) : 0
Atom jitter error (maybe fixed) : 0
Drift error (maybe fixed) : 0
Dropped bytes error (maybe fixed) : 0
Duplicated bytes error (maybe fixed) : 0
Inconsistency in error sectors : 0
Track 05
Filename : /Users/Rowdy/Desktop/Manu Dibango - Choc 'N Soul (2010) [FLAC]/05 - Africa Boogie.flac
Pre-gap length : 00:02:00
Track gain : -2.38 dB
Peak : 0.915955
CRC32 hash (test run) : 1BCC85D4
CRC32 hash : 1BCC85D4
CRC32 hash (skip zero) : C4B9D107
AccurateRip signature : 59D31D4F
->Track not present in AccurateRip database.
Statistics
Read error : 0
Skipped (treated as error) : 0
Edge jitter error (maybe fixed) : 0
Atom jitter error (maybe fixed) : 0
Drift error (maybe fixed) : 0
Dropped bytes error (maybe fixed) : 0
Duplicated bytes error (maybe fixed) : 0
Inconsistency in error sectors : 0
Track 06
Filename : /Users/Rowdy/Desktop/Manu Dibango - Choc 'N Soul (2010) [FLAC]/06 - Douala Serenade.flac
Pre-gap length : 00:02:00
Track gain : -2.76 dB
Peak : 0.894073
CRC32 hash (test run) : DD5D6970
CRC32 hash : DD5D6970
CRC32 hash (skip zero) : B70C40CB
AccurateRip signature : 7DC7FDA0
->Track not present in AccurateRip database.
Statistics
Read error : 0
Skipped (treated as error) : 0
Edge jitter error (maybe fixed) : 0
Atom jitter error (maybe fixed) : 0
Drift error (maybe fixed) : 0
Dropped bytes error (maybe fixed) : 0
Duplicated bytes error (maybe fixed) : 0
Inconsistency in error sectors : 0
Track 07
Filename : /Users/Rowdy/Desktop/Manu Dibango - Choc 'N Soul (2010) [FLAC]/07 - Happy Feeling.flac
Pre-gap length : 00:02:00
Track gain : -1.81 dB
Peak : 0.838745
CRC32 hash (test run) : 47E45F69
CRC32 hash : 47E45F69
CRC32 hash (skip zero) : 1E655C83
AccurateRip signature : 5EBF857A
->Track not present in AccurateRip database.
Statistics
Read error : 0
Skipped (treated as error) : 0
Edge jitter error (maybe fixed) : 0
Atom jitter error (maybe fixed) : 0
Drift error (maybe fixed) : 0
Dropped bytes error (maybe fixed) : 0
Duplicated bytes error (maybe fixed) : 0
Inconsistency in error sectors : 0
Track 08
Filename : /Users/Rowdy/Desktop/Manu Dibango - Choc 'N Soul (2010) [FLAC]/08 - Night Jet.flac
Pre-gap length : 00:02:00
Track gain : -1.17 dB
Peak : 0.839661
CRC32 hash (test run) : 17A37CD9
CRC32 hash : 17A37CD9
CRC32 hash (skip zero) : AE29F8B1
AccurateRip signature : 1B8EF966
->Track not present in AccurateRip database.
Statistics
Read error : 0
Skipped (treated as error) : 0
Edge jitter error (maybe fixed) : 0
Atom jitter error (maybe fixed) : 0
Drift error (maybe fixed) : 0
Dropped bytes error (maybe fixed) : 0
Duplicated bytes error (maybe fixed) : 0
Inconsistency in error sectors : 0
Track 09
Filename : /Users/Rowdy/Desktop/Manu Dibango - Choc 'N Soul (2010) [FLAC]/09 - Ca Va Chouia.flac
Pre-gap length : 00:02:00
Track gain : 0.16 dB
Peak : 0.794128
CRC32 hash (test run) : C9D26560
CRC32 hash : C9D26560
CRC32 hash (skip zero) : 40A1191B
AccurateRip signature : 3B98D09A
->Track not present in AccurateRip database.
Statistics
Read error : 0
Skipped (treated as error) : 0
Edge jitter error (maybe fixed) : 0
Atom jitter error (maybe fixed) : 0
Drift error (maybe fixed) : 0
Dropped bytes error (maybe fixed) : 0
Duplicated bytes error (maybe fixed) : 0
Inconsistency in error sectors : 0
Track 10
Filename : /Users/Rowdy/Desktop/Manu Dibango - Choc 'N Soul (2010) [FLAC]/10 - Goro City.flac
Pre-gap length : 00:02:00
Track gain : -1.36 dB
Peak : 0.737823
CRC32 hash (test run) : 9065C5A8
CRC32 hash : 9065C5A8
CRC32 hash (skip zero) : C3E4B58F
AccurateRip signature : 705057AA
->Track not present in AccurateRip database.
Statistics
Read error : 0
Skipped (treated as error) : 0
Edge jitter error (maybe fixed) : 0
Atom jitter error (maybe fixed) : 0
Drift error (maybe fixed) : 0
Dropped bytes error (maybe fixed) : 0
Duplicated bytes error (maybe fixed) : 0
Inconsistency in error sectors : 0
Track 11
Filename : /Users/Rowdy/Desktop/Manu Dibango - Choc 'N Soul (2010) [FLAC]/11 - Waka Juju.flac
Pre-gap length : 00:02:00
Track gain : -1.31 dB
Peak : 0.968628
CRC32 hash (test run) : 53608FD2
CRC32 hash : 53608FD2
CRC32 hash (skip zero) : F77A88A8
AccurateRip signature : 98C653CB
->Track not present in AccurateRip database.
Statistics
Read error : 0
Skipped (treated as error) : 0
Edge jitter error (maybe fixed) : 0
Atom jitter error (maybe fixed) : 0
Drift error (maybe fixed) : 0
Dropped bytes error (maybe fixed) : 0
Duplicated bytes error (maybe fixed) : 0
Inconsistency in error sectors : 0
Track 12
Filename : /Users/Rowdy/Desktop/Manu Dibango - Choc 'N Soul (2010) [FLAC]/12 - Minuit Au Circuit.flac
Pre-gap length : 00:02:00
Track gain : -0.20 dB
Peak : 0.839783
CRC32 hash (test run) : 6C8A742B
CRC32 hash : 6C8A742B
CRC32 hash (skip zero) : DE1619C7
AccurateRip signature : E51AFFB1
->Track not present in AccurateRip database.
Statistics
Read error : 0
Skipped (treated as error) : 0
Edge jitter error (maybe fixed) : 0
Atom jitter error (maybe fixed) : 0
Drift error (maybe fixed) : 0
Dropped bytes error (maybe fixed) : 0
Duplicated bytes error (maybe fixed) : 0
Inconsistency in error sectors : 0
No errors occurred
End of status report
 
Содержание индексной карты (.CUE)
TITLE "Choc 'N Soul"
PERFORMER "Manu Dibango"
REM GENRE "Jazz"
REM DATE 2010
REM DISCNUMBER 1
REM TOTALDISCS 1
REM DISCID A50FB00C
FILE "CDImage.wav" WAVE
TRACK 01 AUDIO
TITLE "Choc 'n Soul"
ISRC FRX191000764
INDEX 01 00:00:00
TRACK 02 AUDIO
TITLE "Reggae Makossa"
ISRC FRX191000765
INDEX 00 05:17:04
INDEX 01 05:19:04
TRACK 03 AUDIO
TITLE "Bushman Promenade"
ISRC FRX191000766
INDEX 00 11:54:07
INDEX 01 11:56:07
TRACK 04 AUDIO
TITLE "Mouna Pola"
ISRC FRX191000767
INDEX 00 17:00:28
INDEX 01 17:02:28
TRACK 05 AUDIO
TITLE "Africa Boogie"
ISRC FRX191000768
INDEX 00 22:16:30
INDEX 01 22:18:30
TRACK 06 AUDIO
TITLE "Douala Serenade"
ISRC FRX191000769
INDEX 00 26:34:38
INDEX 01 26:36:38
TRACK 07 AUDIO
TITLE "Happy Feeling"
ISRC FRX191000770
INDEX 00 33:02:56
INDEX 01 33:04:56
TRACK 08 AUDIO
TITLE "Night Jet"
ISRC FRX191000771
INDEX 00 39:28:52
INDEX 01 39:30:52
TRACK 09 AUDIO
TITLE "Ca Va Chouia"
ISRC FRX191000772
INDEX 00 46:12:65
INDEX 01 46:14:65
TRACK 10 AUDIO
TITLE "Goro City"
ISRC FRX191000773
INDEX 00 52:10:61
INDEX 01 52:12:61
TRACK 11 AUDIO
TITLE "Waka Juju"
ISRC FRX191000774
INDEX 00 60:47:42
INDEX 01 60:49:42
TRACK 12 AUDIO
TITLE "Minuit Au Circuit"
ISRC FRX191000775
INDEX 00 65:37:15
INDEX 01 65:39:15
18:34
295
Нет комментариев. Ваш будет первым!