Поиск

(Brazilian Jazz) Antonio Adolfo - Chiquinha com Jazz - 1997, FLAC (image+.cue), lossless

(Brazilian Jazz) Antonio Adolfo - Chiquinha com Jazz - 1997, FLAC (image+.cue), lossless
Треклист:
Antonio Adolfo - Chiquinha com Jazz
Жанр: Brazilian Jazz
Страна-производитель диска: Бразилия
Год издания: 1997
Издатель (лейбл): Artezanal/Kuarup
Номер по каталогу: ARCD 3002
Аудиокодек: FLAC (*.flac)
Тип рипа: image+.cue
Битрейт аудио: lossless
Продолжительность: 41:15
Источник (релизер): seogcg (hqshare)
Наличие сканов в содержимом раздачи: да
Треклист:
01. Atraente (Gonzaga) - 3:23
02. Cordao carnavalesco (Gonzaga) - 3:05
03. Lua branca (Gonzaga) - 5:15
04. Anga (Gonzaga) - 3:51
05. Gaucho (Corta-Jaca) (Gonzaga) - 5:06
06. O Forrobodo (Gonzaga) - 3:33
07. A Corte na roca (Balada Romantica para Canto) (Gonzaga) - 3:49
08. Satan (Gonzaga) - 2:49
09. Ismenia (Gonzaga) - 3:25
10. Faceiro (Gonzaga) - 3:57
11. O Abre Alas (Gonzaga) - 3:02
Состав:
Antonio Adolfo - piano, arranger
Gabriel Vivas - bass
Ivan Conti - drums
Claudio Spiewak - guitar
 
Лог создания рипа
EAC extraction logfile from 5. May 2007, 3:15 for CD
Antфnio Adolfo / Chiquinha com Jazz
Used drive : HL-DT-STRW/DVD GCC-4520B Adapter: 0 ID: 1
Read mode : Secure with NO C2, accurate stream, disable cache
Read offset correction : 6
Overread into Lead-In and Lead-Out : No
Used output format : Internal WAV Routines
44.100 Hz; 16 Bit; Stereo
Other options :
Fill up missing offset samples with silence : Yes
Delete leading and trailing silent blocks : No
Installed external ASPI interface
Range status and errors
Selected range
Filename D:\INCOMING\_RELEASES\Antonio.Adolfo.-.Chiquinha.Com.Jazz[KUARUP][1997][CHORO.JAZZ][EAC.FLAC.SCAN]by.seogcg\Antonio Adolfo - Chiquinha com Jazz.wav
Peak level 99.9 %
Range quality 100.0 %
CRC 0AA8F641
Copy OK
No errors occured
End of status report
 
Содержание индексной карты (.CUE)
REM GENRE Jazz
REM DATE 1997
REM DISCID 8A09AA0B
REM COMMENT "ExactAudioCopy v0.95b4"
PERFORMER "Antonio Adolfo"
TITLE "Chiquinha com Jazz"
FILE "Antonio Adolfo - Chiquinha com Jazz.wav" WAVE
TRACK 01 AUDIO
TITLE "Atraente"
PERFORMER "Antonio Adolfo"
INDEX 01 00:00:00
TRACK 02 AUDIO
TITLE "Cordao carnavalesco"
PERFORMER "Antonio Adolfo"
INDEX 00 03:20:37
INDEX 01 03:23:37
TRACK 03 AUDIO
TITLE "Lua branca"
PERFORMER "Antonio Adolfo"
INDEX 00 06:23:17
INDEX 01 06:28:17
TRACK 04 AUDIO
TITLE "Anga"
PERFORMER "Antonio Adolfo"
INDEX 00 11:37:67
INDEX 01 11:42:67
TRACK 05 AUDIO
TITLE "Gaucho (Corta-Jaca)"
PERFORMER "Antonio Adolfo"
INDEX 00 15:30:25
INDEX 01 15:34:25
TRACK 06 AUDIO
TITLE "O Forrobodo"
PERFORMER "Antonio Adolfo"
INDEX 00 20:34:67
INDEX 01 20:39:67
TRACK 07 AUDIO
TITLE "A Corte na roca (Balada Romantica para Canto)"
PERFORMER "Antonio Adolfo"
INDEX 00 24:07:37
INDEX 01 24:12:37
TRACK 08 AUDIO
TITLE "Satan"
PERFORMER "Antonio Adolfo"
INDEX 00 27:55:67
INDEX 01 28:01:67
TRACK 09 AUDIO
TITLE "Ismenia"
PERFORMER "Antonio Adolfo"
INDEX 00 30:46:42
INDEX 01 30:50:42
TRACK 10 AUDIO
TITLE "Faceiro"
PERFORMER "Antonio Adolfo"
INDEX 00 34:11:00
INDEX 01 34:16:00
TRACK 11 AUDIO
TITLE "O Abre Alas"
PERFORMER "Antonio Adolfo"
INDEX 00 38:07:62
INDEX 01 38:12:62
 
Отчет CUETools
[CUETools log; Date: 23.11.2013 15:09:38; Version: 2.1.4]
[CTDB TOCID: zV.LnW1Ti_sJzo2DDRb.TDpPTWI-] disk not present in database.
[AccurateRip ID: 00117bce-0097594c-8a09aa0b] disk not present in database.
Track Peak [ CRC32 ] [W/O NULL] [ LOG ]
-- 99,9 [0AA8F641] [AB6438B8] CRC32
01 99,9 [EA5963F6] [F6CA0E62]
02 99,9 [EB4A79B8] [292A3F37]
03 99,9 [D555C334] [91C68CD5]
04 99,9 [93B4D970] [4BAF91DC]
05 99,9 [C6EA0B43] [4A89397B]
06 99,9 [011C3695] [92F38997]
07 99,9 [3800729C] [B75F5FDB]
08 99,9 [77EA6731] [2B6E681E]
09 99,9 [9A88BE80] [EB2BD7EE]
10 99,9 [74EF3EFD] [18A0AD6F]
11 99,9 [5A933A5A] [D2B677E1]
 
Об альбоме (сборнике)
Lead by pianist Adolfo, the quartet of musicians performs works by Chiquinha Gonzaga, 1847 to 1935, who herself was a pianist, composer, and conductor. An early foe of slavery and supporter of a republic, she left her comfortable life as wife of a naval administrator to dedicate herself to music. Creating a niche within the male-dominate society, she composed polkas, choros, and music for the theater and carnival. Adolfo with Gabriel Viva, bass, Ivan Conti, drums, and Claudio Spiewak, Brazilian guitar, honor this pioneer with jazz arrangements of her music. The tempo is fast with a syncopated ragtime feel, although one track is a romantic ballad in waltz time. The happy album was issued in 1997 for Gonzaga's 150th birthday. If you are curious about Brazilian music beyond samba, forró, and bossa nova, take this Latin jazz ride into the past. Eleven tracks over 41 minutes.
-- Dr. Debra Jan Bibel
14:03
789
Нет комментариев. Ваш будет первым!