Поиск

(World Fusion, Ethnic Jazz, Electronic, Neo Indian Classical, Tzadik) Suphala (ft Jose James, Vijay Iyer, Bill Laswell, Amir ElSaffar ect.) - Alien Ancestry - 2013, FLAC (tracks+.cue), lossless

(World Fusion, Ethnic Jazz, Electronic, Neo Indian Classical, Tzadik) Suphala (ft Jose James, Vijay Iyer, Bill Laswell, Amir ElSaffar ect.) - Alien Ancestry - 2013, FLAC (tracks+.cue), lossless
Треклист:
Suphala (ft José James, Vijay Iyer, Bill Laswell, Amir ElSaffar ect.) / Alien Ancestry
Жанр: World Fusion, Ethnic Jazz, Electronic, Neo Indian Сlassical
Страна-производитель диска: USA
Год издания: 2013
Издатель (лейбл): Tzadik
Номер по каталогу: TZ 7729
Страна: India
Аудиокодек: FLAC (*.flac)
Тип рипа: tracks+.cue
Битрейт аудио: lossless
Продолжительность: 00:48:02
Источник (релизер): вата (благодарности - sheburon)
Наличие сканов в содержимом раздачи: нет
Треклист:
1. Interlude
2. The Beginning
3. Alien Ancestry
4. Bazaar
5. Cerulean
6. No Words
7. Not Even
8. Eight and a Half Birds
9. Vashikaran
 
Лог создания рипа
Exact Audio Copy V1.0 beta 3 from 29. August 2011
EAC extraction logfile from 14. November 2013, 18:55
Suphala / Alien Ancestry
Used drive : ASUS DRW-24B1ST c Adapter: 6 ID: 0
Read mode : Secure
Utilize accurate stream : Yes
Defeat audio cache : Yes
Make use of C2 pointers : No
Read offset correction : 6
Overread into Lead-In and Lead-Out : No
Fill up missing offset samples with silence : Yes
Delete leading and trailing silent blocks : No
Null samples used in CRC calculations : Yes
Used interface : Native Win32 interface for Win NT & 2000
Gap handling : Appended to previous track
Used output format : User Defined Encoder
Selected bitrate : 1024 kBit/s
Quality : High
Add ID3 tag : No
Command line compressor : C:\Program Files (x86)\Exact Audio Copy\Flac\flac.exe
Additional command line options : -8 -V -T "ARTIST=%artist%" -T "TITLE=%title%" -T "ALBUM=%albumtitle%" -T "DATE=%year%" -T "TRACKNUMBER=%tracknr%" -T "GENRE=%genre%" -T "PERFORMER=%albuminterpret%" -T "COMPOSER=%composer%" %haslyrics%--tag-from-file=LYRICS="%lyricsfile%"%haslyrics% -T "ALBUMARTIST=%albumartist%" -T "DISCNUMBER=%cdnumber%" -T "TOTALDISCS=%totalcds%" -T "TOTALTRACKS=%numtracks%" -T "COMMENT=%comment%" %source% -o %dest%
TOC of the extracted CD
Track | Start | Length | Start sector | End sector
---------------------------------------------------------
1 | 0:00.00 | 1:18.10 | 0 | 5859
2 | 1:18.10 | 3:11.65 | 5860 | 20249
3 | 4:30.00 | 2:21.59 | 20250 | 30883
4 | 6:51.59 | 4:39.44 | 30884 | 51852
5 | 11:31.28 | 6:12.00 | 51853 | 79752
6 | 17:43.28 | 3:56.34 | 79753 | 97486
7 | 21:39.62 | 5:40.35 | 97487 | 123021
8 | 27:20.22 | 6:08.18 | 123022 | 150639
9 | 33:28.40 | 14:33.14 | 150640 | 216128
Track 1
Filename Z:\EAC\Suphala - Alien Ancestry [FLAC]\01 - Interlude.wav
Pre-gap length 0:00:02.00
Peak level 100.0 %
Extraction speed 3.8 X
Track quality 100.0 %
Test CRC 82CAE41D
Copy CRC 82CAE41D
Track not present in AccurateRip database
Copy OK
Track 2
Filename Z:\EAC\Suphala - Alien Ancestry [FLAC]\02 - The Beginning.wav
Peak level 98.9 %
Extraction speed 4.1 X
Track quality 99.9 %
Test CRC 08BE86B4
Copy CRC 08BE86B4
Track not present in AccurateRip database
Copy OK
Track 3
Filename Z:\EAC\Suphala - Alien Ancestry [FLAC]\03 - Alien Ancestry.wav
Peak level 98.0 %
Extraction speed 5.1 X
Track quality 100.0 %
Test CRC A4BCCF95
Copy CRC A4BCCF95
Track not present in AccurateRip database
Copy OK
Track 4
Filename Z:\EAC\Suphala - Alien Ancestry [FLAC]\04 - Bazaar.wav
Peak level 100.0 %
Extraction speed 6.2 X
Track quality 100.0 %
Test CRC ACE6237E
Copy CRC ACE6237E
Track not present in AccurateRip database
Copy OK
Track 5
Filename Z:\EAC\Suphala - Alien Ancestry [FLAC]\05 - Cerulean.wav
Peak level 100.0 %
Extraction speed 7.1 X
Track quality 100.0 %
Test CRC 837C964E
Copy CRC 837C964E
Track not present in AccurateRip database
Copy OK
Track 6
Filename Z:\EAC\Suphala - Alien Ancestry [FLAC]\06 - No Words.wav
Peak level 100.0 %
Extraction speed 7.3 X
Track quality 100.0 %
Test CRC D1CF7833
Copy CRC D1CF7833
Track not present in AccurateRip database
Copy OK
Track 7
Filename Z:\EAC\Suphala - Alien Ancestry [FLAC]\07 - Not Even.wav
Peak level 100.0 %
Extraction speed 8.1 X
Track quality 100.0 %
Test CRC 742A1AEB
Copy CRC 742A1AEB
Track not present in AccurateRip database
Copy OK
Track 8
Filename Z:\EAC\Suphala - Alien Ancestry [FLAC]\08 - Eight and a Half Birds.wav
Peak level 99.7 %
Extraction speed 8.8 X
Track quality 100.0 %
Test CRC ADA48B0D
Copy CRC ADA48B0D
Track not present in AccurateRip database
Copy OK
Track 9
Filename Z:\EAC\Suphala - Alien Ancestry [FLAC]\09 - Vashikaran.wav
Peak level 95.5 %
Extraction speed 9.6 X
Track quality 99.9 %
Test CRC 7C95F11D
Copy CRC 7C95F11D
Track not present in AccurateRip database
Copy OK
None of the tracks are present in the AccurateRip database
No errors occurred
End of status report
==== Log checksum CE1F7AD7E689476CE0173D3858EEC4CB5F1C7243B3B273BB6B446A9BC4C4F26F ====
 
Содержание индексной карты (.CUE)
REM GENRE World
REM DATE 2013
REM DISCID 500B4109
REM COMMENT "ExactAudioCopy v1.0b3"
PERFORMER "Suphala"
TITLE "Alien Ancestry"
FILE "01 - Interlude.wav" WAVE
TRACK 01 AUDIO
TITLE "Interlude"
PERFORMER "Suphala"
FLAGS DCP
INDEX 01 00:00:00
FILE "02 - The Beginning.wav" WAVE
TRACK 02 AUDIO
TITLE "The Beginning"
PERFORMER "Suphala"
FLAGS DCP
INDEX 01 00:00:00
FILE "03 - Alien Ancestry.wav" WAVE
TRACK 03 AUDIO
TITLE "Alien Ancestry"
PERFORMER "Suphala"
FLAGS DCP
INDEX 01 00:00:00
FILE "04 - Bazaar.wav" WAVE
TRACK 04 AUDIO
TITLE "Bazaar"
PERFORMER "Suphala"
FLAGS DCP
INDEX 01 00:00:00
FILE "05 - Cerulean.wav" WAVE
TRACK 05 AUDIO
TITLE "Cerulean"
PERFORMER "Suphala"
FLAGS DCP
INDEX 01 00:00:00
FILE "06 - No Words.wav" WAVE
TRACK 06 AUDIO
TITLE "No Words"
PERFORMER "Suphala"
FLAGS DCP
INDEX 01 00:00:00
FILE "07 - Not Even.wav" WAVE
TRACK 07 AUDIO
TITLE "Not Even"
PERFORMER "Suphala"
FLAGS DCP
INDEX 01 00:00:00
FILE "08 - Eight and a Half Birds.wav" WAVE
TRACK 08 AUDIO
TITLE "Eight and a Half Birds"
PERFORMER "Suphala"
FLAGS DCP
INDEX 01 00:00:00
FILE "09 - Vashikaran.wav" WAVE
TRACK 09 AUDIO
TITLE "Vashikaran"
PERFORMER "Suphala"
FLAGS DCP
INDEX 01 00:00:00
Доп. информация: http://www.tzadik.com/index.php?catalog=7729
 
Об исполнителе
Suphala is one of the most versatile young tabla artists making music today. Raised in the U.S. by Indian parents, Suphala began learning western classical music on the piano at age four, performing at age five, and as a teenager transferred her passion to one of the world’s most complex percussion instruments: the tabla. She combines an unparalleled technical command of her instrument with a playful sense of experimentation as she switches effortlessly between composing, producing and performing.
Suphala is a protégé of the great tabla masters Ustad Allarakha and Ustad Zakir Hussain, whose constant inspiration compels her not only to dedicate herself to the study of Indian classical music but also to extend the reach of the tabla into an ever-growing variety of musical genres and cultural contexts. Her fluency in a diversity of musical traditions informs her unique compositions and her highly improvisational performances. The three albums she has released to date – Instru Mental (2000), The Now (2005) and Blueprint (2007) – go beyond the limits of genre and style while referencing such diverse influences as Western classical, Indian classical, jazz, folk and soul. But it’s not just her original music that is groundbreaking, her concerts provide an inspiring case-study in cultural diplomacy: she made history in early 2005 when she traveled to Kabul, Afghanistan as the first musician to play in public since the fall of the Taliban. According to The New York Times, “Kabul’s badly depleted music scene received a welcome injection of excitement last week. [Her] arrival… caused a sensation in the war-torn country. ‘I have not played with a woman before,’ one Afghan tabla master said. ‘Our grandfathers do not even know of it.’”
Collaboration is one of the touchstones of her prodigious musical output: the musicians she has recorded or performed with include Norah Jones, Perry Farrell, Edie Brickell, Vernon Reid, Timbaland, Sean Lennon, 4Hero, Harper Simon, Yoko Ono, Vijay Iyer, Joan Osbourne, and Michael Bland among others. Many of these artists have sought Suphala out to lend her talents to tours, her songwriting skills to specific tracks or her producing prowess to recordings. The artistic alliances Suphala forms — including ensembles with vocals, strings, woodwinds, reeds and percussion — are an integral part of her innovative approach to making music.
With her unique rhythmic and melodic vocabulary and production chops that are both rigorous and inventive, this next phase of Suphala’s evolving musical expression is bound to continue a trajectory rooted in a deep understanding of the proud legacy of the tabla and a passionate commitment to expand the scope of its expression and to communicate it to the wider world.
http://suphala.com/
http://www.myspace.com/suphala
http://en.wikipedia.org/wiki/Suphala
 
Об альбоме
Suphala is a tabla player who has studied under a number of classically trained Indian masters, as well as playing with a number of pop and jazz musicians. This album weaves a wide range of music with a large group featuring Vijay Iyer on piano, Amir Elsaffar on trumpet and Bill Laswell adding his unique mojo to the proceedings. Suphala’s tablas develop a simmering feeling of incantation throughout the music. Bubbling and shifting and reshaping the rhythm with a sense of continual motion. Horns join in at times, developing a beguiling swirl, or horns, clarinet, oud and percussion. The fast paced rhythm of the percussion is tuned at times so instruments resemble percussion that rings and resonates. Vijay Iyer makes his presence felt a few times on piano which adds further melodic flavor to the cascading percussion. It is the amazing sense of rhythm that is the most impressive thing about this album, Suphala has seemingly internalized everything and then developing the music in hypnotic fashion and at a dizzying pace. The texture and fabric of the music is constantly changing, with Laswell playing master of ceremonies, mixing the music and adding subtle hints of electronics and a near danceable sensibility. The melding of Indian music along with jazz and forms of improvisation are consistently interesting on this album. It is a central meeting place where diverse influences are combined together in a crucible of passionate music.
 
Состав
Suphala: Tabla, All Other Sounds
Kinan Azmeh: Clarinet
Hadi Eldebek: Oud
Amir Elsaffar: Trumpet
John Hadfield: Cajon, Garhand
Vijay Iyer: Piano, Remix
Jose James: Vocals
Matt Kilmer: Frame Drum
Mazz Swift: Violin
Bill Laswell: Alien Translation
Искусная табла-исполнительница, композитор и продюсер Суфала Патанкар является ученицей всемирно известных музыкантов Алла Ракхи и Закир Хусейна. Ее родители – выходцы из Индии. Ее отец – Suhas В. Patankar – известный индо-американский инженер-механик, пионер в области вычислительной гидродинамики и метода конечных объемов. С четырех лет Суфала обучалась музыкальному искусству, причем параллельно – игре на табла и на фортепиано. В ее работах классическая индийская традиция сочетается с современными аранжировками. Ее творчество изобилует неимоверным количеством различных жанров – от эйсид-джаза и фьюжна до нео-фолка и соула. Ее четвертый по счету альбом «Alien Ancestry» был записан на популярном лейбле Tzadik при участии именитых джазовых звезд, таких как американский пианист Виджей Айер (Vijay Iyer), американо-иракский трубач Амир ЭльСаффар (Amir ElSaffar), американский бас-гитарист и продюсер Билл Ласвелл (Bill Laswell), американский вокалист Хосе Джеймс (José James) и другие.
13:02
423
Нет комментариев. Ваш будет первым!