Поиск

(Bossa Nova/Vocal Jazz/Samba Jazz) Elza Soares - Aquarela Brasileira - 1973, FLAC (image+.cue), lossless

Elza Soares - Aquarela Brasileira
Жанр: Bossa Nova/Vocal Jazz/Samba Jazz
Год выпуска диска: 1973
Производитель диска: EMI Odeon (Coronado) - SC 10073 - Brazil
Источник: My CD
Аудио кодек: FLAC
Тип рипа: image+.cue
Битрейт аудио: lossless
Продолжительность: 34:36
Трэклист:
01 - Aquarela Brasileira (3:06)
02 - Busto Calado (2:50)
03 - Pranto De Poeta (2:56)
04 - Dia De Graca (2:46)
05 - Maria Jose (2:05)
06 - Zelao (3:22)
07 - Canoa Furada (2:54)
08 - Solidao (2:14)
09 - Sete Linhas (3:04)
10 - Festa Da Vinda (2:41)
11 - La Vou Eu (2:58)
12 - Eu Nao Toco Berimbau (3:12)
 
Scans
 
Info
This is Elza Soares – Aquarela Brasileira (1973), for Odeon, which is the last album recorded by Elza Soares at Odeon, her record company since the first album released in 1960. Musicians in this session were not credited by Odeon and I had little time to do a search and retrieve additional info.
 
EAC Лог
Exact Audio Copy V0.99 prebeta 5 from 4. May 2009
EAC extraction logfile from 23. January 2010, 12:49
Elza Soares / Aquarela Brasileira 1973
Used drive : HL-DT-STDVDRAM GH20NS15 Adapter: 0 ID: 0
Read mode : Secure
Utilize accurate stream : Yes
Defeat audio cache : Yes
Make use of C2 pointers : No
Read offset correction : 667
Overread into Lead-In and Lead-Out : No
Fill up missing offset samples with silence : Yes
Delete leading and trailing silent blocks : No
Null samples used in CRC calculations : Yes
Used interface : Installed external ASPI interface
Used output format : User Defined Encoder
Selected bitrate : 1024 kBit/s
Quality : High
Add ID3 tag : No
Command line compressor : C:\Program Files\Exact Audio Copy\Flac\flac.exe
Additional command line options : -8 -A tukey(0.25) -A gauss(0.1875) -b 4096 -V -T "artist=%a" -T "title=%t" -T "album=%g" -T "date=%y" -T "tracknumber=%n" -T "genre=%m" %s --sector-align
TOC of the extracted CD
Track | Start | Length | Start sector | End sector
---------------------------------------------------------
1 | 0:00.00 | 3:08.62 | 0 | 14161
2 | 3:08.62 | 2:52.49 | 14162 | 27110
3 | 6:01.36 | 2:58.41 | 27111 | 40501
4 | 9:00.02 | 2:48.29 | 40502 | 53130
5 | 11:48.31 | 2:07.25 | 53131 | 62680
6 | 13:55.56 | 3:24.50 | 62681 | 78030
7 | 17:20.31 | 2:56.31 | 78031 | 91261
8 | 20:16.62 | 2:16.24 | 91262 | 101485
9 | 22:33.11 | 3:06.67 | 101486 | 115502
10 | 25:40.03 | 2:43.17 | 115503 | 127744
11 | 28:23.20 | 3:00.68 | 127745 | 141312
12 | 31:24.13 | 3:12.47 | 141313 | 155759
Range status and errors
Selected range
Filename D:\Torrents.ru\Elza Soares\Elza Soares - Aquarela Brasileira 1973\Elza Soares - Aquarela Brasileira 1973.wav
Peak level 96.5 %
Range quality 100.0 %
Test CRC A6AB7D43
Copy CRC A6AB7D43
Copy OK
No errors occurred
End of status report
 
Audiochecker
AUDIOCHECKER v2.0 beta (build 457) - by Dester - opdester@freemail.hu
~~~~~~~~~~~~~~~~~~~~~~~~~~~~~~~~~~
-=== DO NOT EDIT THIS FILE! ===-
Path: ...\Elza Soares - Aquarela Brasileira 1973
1 -=- Elza Soares - Aquarela Brasileira 1973.flac -=- CDDA (99%)
131411748
14:20
305
Нет комментариев. Ваш будет первым!