Поиск

(Bossa Nova/Brazilian Jazz) Jorge Ben - Bem Vinda Amizade - 1981, FLAC (image+.cue), lossless

Треклист:
Jorge Ben - Bem Vinda Amizade
Жанр: Bossa Nova/Brazilian Jazz
Год выпуска диска: 1981
Производитель диска: Sistema Globo De Gravacoes LTDA - Brazil
Источник: My CD
Аудио кодек: FLAC
Тип рипа: image+.cue
Битрейт аудио: lossless
Продолжительность: 36:30
Трэклист:
01 - O Dia Que O Sol Declarou O Seu Amor Pela Terra (3:45)
02 - Santa Clara Clareou (3:30)
03 - Oe Oe (Faz o Carro de Boi na Estrada) (3:13)
04 - Era Uma Vez Um Aposentado Marinheiro (3:37)
05 - Lorraine (3:51)
06 - Curumim Chama Cunhanta Que Eu Vou Contar (Todo Dia Era Dia de Indio) (3:45)
07 - Katarina Katarina (4:03)
08 - Ela Mora Em Matogrosso Fronteira Com O Paraguai (3:23)
09 - Para Que Digladiar (3:31)
10 - Luis Wagner Guitarreiro (3:30)
 
Scans
 
Info
This is Jorge Ben – Bem-vinda Amizade (1981), for Som Livre, featuring well known Jorge Ben compositions. I’m not versed on Jorge Ben discography, but this one seems to be on a more relaxed mood, different from Alo Alo, Como Vai?, released in the same year. Personnel listing features several percussionists supporting Jorge Ben guitar with the accompaniment of bass, drums and keyboards, in some tracks played by the legendary Lincoln Olivet.
Personnel
Jorge Ben
(violao, voice, guitar, percussion)
Roberto Dargbli
(bass)
Bomba Sjostedt
(piano, organ)
Pena, Miss Lynn
(drums)
Nenem, Bidu, Luiz Carlos, Cowbel, Joaozinho, Luizinho, Naila
(percussion)
A Banda do Ze Pretinho, As Gatas
(choir)
Lincoln Olivetti
(organ)
Jane Duboc, Guilherme Lamounier, Sonia Bournier, Robinson Jorge
(choir)
Mu
(keyboards)
Chiquinho do Acordeon
(accordion)
Serginho
(trombone)
Luiz Wagner
special guest on 10
(guitar)
 
EAC Лог
Exact Audio Copy V0.99 prebeta 5 from 4. May 2009
EAC extraction logfile from 23. January 2010, 12:25
Jorge Ben / Bem-Vinda Amizade
Used drive : HL-DT-STDVDRAM GH20NS15 Adapter: 0 ID: 0
Read mode : Secure
Utilize accurate stream : Yes
Defeat audio cache : Yes
Make use of C2 pointers : No
Read offset correction : 667
Overread into Lead-In and Lead-Out : No
Fill up missing offset samples with silence : Yes
Delete leading and trailing silent blocks : No
Null samples used in CRC calculations : Yes
Used interface : Installed external ASPI interface
Used output format : User Defined Encoder
Selected bitrate : 1024 kBit/s
Quality : High
Add ID3 tag : No
Command line compressor : C:\Program Files\Exact Audio Copy\Flac\flac.exe
Additional command line options : -8 -A tukey(0.25) -A gauss(0.1875) -b 4096 -V -T "artist=%a" -T "title=%t" -T "album=%g" -T "date=%y" -T "tracknumber=%n" -T "genre=%m" %s --sector-align
TOC of the extracted CD
Track | Start | Length | Start sector | End sector
---------------------------------------------------------
1 | 0:00.00 | 3:47.15 | 0 | 17039
2 | 3:47.15 | 3:32.11 | 17040 | 32950
3 | 7:19.26 | 3:15.50 | 32951 | 47625
4 | 10:35.01 | 3:39.56 | 47626 | 64106
5 | 14:14.57 | 3:53.45 | 64107 | 81626
6 | 18:08.27 | 3:47.33 | 81627 | 98684
7 | 21:55.60 | 4:05.56 | 98685 | 117115
8 | 26:01.41 | 3:25.11 | 117116 | 132501
9 | 29:26.52 | 3:33.26 | 132502 | 148502
10 | 33:00.03 | 3:30.58 | 148503 | 164310
Range status and errors
Selected range
Filename D:\Torrents.ru\Jorge Ben Jor\Jorge Ben - Bem-Vinda Amizade\Jorge Ben - Bem-Vinda Amizade.wav
Peak level 100.0 %
Range quality 100.0 %
Test CRC 974EDF22
Copy CRC 974EDF22
Copy OK
No errors occurred
End of status report
 
Audiochecker
AUDIOCHECKER v2.0 beta (build 457) - by Dester - opdester@freemail.hu
~~~~~~~~~~~~~~~~~~~~~~~~~~~~~~~~~~
-=== DO NOT EDIT THIS FILE! ===-
Path: ...\Jorge Ben - Bem-Vinda Amizade
1 -=- Jorge Ben - Bem-Vinda Amizade.flac -=- CDDA (100%)
151761892
14:20
374
Нет комментариев. Ваш будет первым!