Поиск

(Bossa Nova/Latin Jazz) Chico Buarque - Chico Buarque Vol. 3 - 1968, FLAC (image +.cue), lossless

Треклист:
Chico Buarque - Chico Buarque Vol. 3
Жанр: Bossa Nova/Latin Jazz
Год выпуска диска: 1968
Аудио кодек: FLAC
Тип рипа: image+.cue
Производитель диска: RGE Discos - XRLP-5.320 - Brazil
Продолжительность: 36:46
Трэклист:
1. Ela Desatinou
2. Retrato em Branco e Preto (Chico Buarque, Tom Jobim)
3. Januária
4. Desencontro
5. Carolina
6. Roda Viva (Chico Buarque, Toquinho)
7. O Velho
8. Até Pensei
9. Sem Fantasia
10. Até Segunda-Feira
11. Funeral de um Lavrador (Chico Buarque, João Cabral de Melo Neto)
12. Tema Para "Morte e Vida Severina"
 
Scans
 
EAC Log
Exact Audio Copy V0.99 prebeta 5 from 4. May 2009
EAC extraction logfile from 12. December 2009, 18:17
Chico Buarque / Vol.3
Used drive : HL-DT-STDVDRAM GH20NS15 Adapter: 0 ID: 0
Read mode : Secure
Utilize accurate stream : Yes
Defeat audio cache : Yes
Make use of C2 pointers : No
Read offset correction : 667
Overread into Lead-In and Lead-Out : No
Fill up missing offset samples with silence : Yes
Delete leading and trailing silent blocks : No
Null samples used in CRC calculations : Yes
Used interface : Installed external ASPI interface
Used output format : User Defined Encoder
Selected bitrate : 1024 kBit/s
Quality : High
Add ID3 tag : No
Command line compressor : C:\Program Files\Exact Audio Copy\Flac\flac.exe
Additional command line options : -8 -A tukey(0.25) -A gauss(0.1875) -b 4096 -V -T "artist=%a" -T "title=%t" -T "album=%g" -T "date=%y" -T "tracknumber=%n" -T "genre=%m" %s --sector-align
TOC of the extracted CD
Track | Start | Length | Start sector | End sector
---------------------------------------------------------
1 | 0:00.00 | 3:11.71 | 0 | 14395
2 | 3:11.71 | 3:20.55 | 14396 | 29450
3 | 6:32.51 | 3:06.71 | 29451 | 43471
4 | 9:39.47 | 2:13.36 | 43472 | 53482
5 | 11:53.08 | 2:41.57 | 53483 | 65614
6 | 14:34.65 | 3:46.08 | 65615 | 82572
7 | 18:20.73 | 2:59.68 | 82573 | 96065
8 | 21:20.66 | 4:18.37 | 96066 | 115452
9 | 25:39.28 | 3:29.58 | 115453 | 131185
10 | 29:09.11 | 2:32.10 | 131186 | 142595
11 | 31:41.21 | 2:31.35 | 142596 | 153955
12 | 34:12.56 | 2:34.01 | 153956 | 165506
Range status and errors
Selected range
Filename D:\Torrents.ru\Chico Buarque\Chico Buarque - Chico Buarque Vol. 3\Chico Buarque - Chico Buarque Vol. 3.wav
Peak level 94.3 %
Range quality 100.0 %
Test CRC 2C81D30A
Copy CRC 2C81D30A
Copy OK
No errors occurred
End of status report
Download available for power users only.
10:27
164
Нет комментариев. Ваш будет первым!