Поиск

(Bossa Nova/Brazilian Jazz/Guitar) Baden Powell & Paulo Cesar Pinheiro - Os Cantores Da Lapinha - 1970, FLAC (image+.cue), lossless

Треклист:
Baden Powell & Paulo Cesar Pinheiro - Os Cantores Da Lapinha
Жанр: Bossa Nova/Brazilian Jazz/Guitar
Год выпуска диска: 1970
Производитель диска: Elenco - ME 63 - Brazil
Источник: My CD
Аудио кодек: FLAC
Тип рипа: image+.cue
Битрейт аудио: lossless
Продолжительность: 36:19
Трэклист:
01 - Aviso Aos Navegantes (2:39)
02 - Quaquaraquaqua (Vou Deitar E Rolar) (3:18)
03 - Refem Da Solidao (4:40)
04 - Carta De Poeta (3:06)
05 - Lapinha (4:11)
06 - E De Lei (3:23)
07 - Falei E Disse (3:47)
08 - Ponto (4:04)
09 - Violao Vadio (3:35)
10 - Samba Do Perdao (3:14)
 
Scans
 
Info
This is Baden Powell e Paulo Cesar Pinheiro – As Musicas de Baden Powell e Paulo Cesar Pinheiro | Os Cantores da Lapinha (1970), for Elenco. Os Cantores da Lapinha is a solid Samba LP with Baden Powell singing. You will not find instrumental tracks. My highlight goes to 07 – Falei e Disse (Baden Powell / Paulo Cesar Pinheiro).
 
EAC Лог
Exact Audio Copy V0.99 prebeta 5 from 4. May 2009
EAC extraction logfile from 23. January 2010, 20:39
Baden Powell & Paulo Cesar Pinheiro / Os Cantores Da Lapinha
Used drive : HL-DT-STDVDRAM GH20NS15 Adapter: 0 ID: 0
Read mode : Secure
Utilize accurate stream : Yes
Defeat audio cache : Yes
Make use of C2 pointers : No
Read offset correction : 667
Overread into Lead-In and Lead-Out : No
Fill up missing offset samples with silence : Yes
Delete leading and trailing silent blocks : No
Null samples used in CRC calculations : Yes
Used interface : Installed external ASPI interface
Used output format : User Defined Encoder
Selected bitrate : 1024 kBit/s
Quality : High
Add ID3 tag : No
Command line compressor : C:\Program Files\Exact Audio Copy\Flac\flac.exe
Additional command line options : -8 -A tukey(0.25) -A gauss(0.1875) -b 4096 -V -T "artist=%a" -T "title=%t" -T "album=%g" -T "date=%y" -T "tracknumber=%n" -T "genre=%m" %s --sector-align
TOC of the extracted CD
Track | Start | Length | Start sector | End sector
---------------------------------------------------------
1 | 0:00.00 | 2:41.47 | 0 | 12121
2 | 2:41.47 | 3:20.16 | 12122 | 27137
3 | 6:01.63 | 4:42.09 | 27138 | 48296
4 | 10:43.72 | 3:08.21 | 48297 | 62417
5 | 13:52.18 | 4:13.39 | 62418 | 81431
6 | 18:05.57 | 3:25.58 | 81432 | 96864
7 | 21:31.40 | 3:49.49 | 96865 | 114088
8 | 25:21.14 | 4:06.15 | 114089 | 132553
9 | 29:27.29 | 3:37.27 | 132554 | 148855
10 | 33:04.56 | 3:14.69 | 148856 | 163474
Range status and errors
Selected range
Filename D:\Torrents.ru\Baden Powell\Baden Powell & Paulo Cesar Pinheiro - Os Cantores Da Lapinha\Baden Powell & Paulo Cesar Pinheiro - Os Cantores Da Lapinha.wav
Peak level 100.0 %
Range quality 99.9 %
Test CRC 618BAD70
Copy CRC 618BAD70
Copy OK
No errors occurred
End of status report
 
Audiochecker
AUDIOCHECKER v2.0 beta (build 457) - by Dester - opdester@freemail.hu
~~~~~~~~~~~~~~~~~~~~~~~~~~~~~~~~~~
-=== DO NOT EDIT THIS FILE! ===-
Path: ...\Baden Powell & Paulo Cesar Pinheiro - Os Cantores Da Lapinha
1 -=- Baden Powell & Paulo Cesar Pinheiro - Os Cantores Da Lapinha.flac -=- CDDA (100%)
142699588
По всем вопросам пишите личное сообщение пользователю M0p94ok.
14:30
314
Нет комментариев. Ваш будет первым!