Поиск

(Contemporary Jazz) Lars Danielsson - New Hands - 1987, WAVPack (image+.cue), lossless

(Contemporary Jazz) Lars Danielsson - New Hands - 1987, WAVPack (image+.cue), lossless
Треклист:
Lars Danielsson - New Hands
Жанр: Contemporary Jazz
Год выпуска диска: 1987
Производитель диска: Dragon (DRCD 125) [2002]
Аудио кодек: WAVPack
Тип рипа: image+.cue
Битрейт аудио: lossless
Продолжительность: 0:46:21
Трэклист:
01. New Hands (7:05)
02. Get Me Back To The Apple (6:39)
03. Rue Payenne (6:35)
04. J.C Hymn (3:24)
05. Chrass (9:49)
06. It's Your Choice (5:46)
07. Johan (7:03)
Lars Danielsson : bass, synthesizer, piano
Bobo Stenson : piano
David Liebman : soprano saophone
Jon Christensen : drums
Göran Klinghagen : guitars, synthesizer on 5
Recorded December 17-20, 1985 at Studio Bohus, Kungälv
Рип от ffsf, сканов нет.
 
EAC Log
Exact Audio Copy V0.99 prebeta 5 from 4. May 2009
EAC extraction logfile from 14. January 2010, 21:00
Lars Danielsson / New Hands
Used drive : MATSHITADVD-ROM SR-8588 Adapter: 1 ID: 1
Read mode : Secure
Utilize accurate stream : Yes
Defeat audio cache : Yes
Make use of C2 pointers : No
Read offset correction : 103
Overread into Lead-In and Lead-Out : No
Fill up missing offset samples with silence : Yes
Delete leading and trailing silent blocks : No
Null samples used in CRC calculations : Yes
Used interface : Installed external ASPI interface
Used output format : Internal WAV Routines
Sample format : 44.100 Hz; 16 Bit; Stereo
TOC of the extracted CD
Track | Start | Length | Start sector | End sector
---------------------------------------------------------
1 | 0:00.00 | 7:04.65 | 0 | 31864
2 | 7:04.65 | 6:38.68 | 31865 | 61782
3 | 13:43.58 | 6:35.00 | 61783 | 91407
4 | 20:18.58 | 3:24.00 | 91408 | 106707
5 | 23:42.58 | 9:48.70 | 106708 | 150877
6 | 33:31.53 | 5:46.02 | 150878 | 176829
7 | 39:17.55 | 7:02.58 | 176830 | 208537
Range status and errors
Selected range
Filename C:\EAC\Lars Danielsson - New Hands.wav
Peak level 77.6 %
Range quality 100.0 %
Test CRC 918F719C
Copy CRC 918F719C
Copy OK
No errors occurred
AccurateRip summary
Track 1 accurately ripped (confidence 3) [CB49C404]
Track 2 accurately ripped (confidence 3) [33EAEA2A]
Track 3 accurately ripped (confidence 3) [929934C5]
Track 4 accurately ripped (confidence 3) [F504D0A7]
Track 5 accurately ripped (confidence 3) [5D167E70]
Track 6 accurately ripped (confidence 2) [7BCD239E]
Track 7 accurately ripped (confidence 2) [17EB20B5]
All tracks accurately ripped
End of status report
14:29
573
Нет комментариев. Ваш будет первым!