Поиск

(Bossa Nova, Funk) Azymuth - Aurora - 2011, FLAC (tracks+.cue), lossless

Azymuth - Aurora
Жанр: Bossa Nova, Funk
Страна-производитель диска: UK
Год издания диска: 2011
Издатель (лейбл): Far Out Recordings
Номер по каталогу: FARO157CD
Аудиокодек: FLAC (*.flac)
Тип рипа: tracks+.cue
Битрейт аудио: lossless
Продолжительность: 48:26
Источник (релизер): what.cd
Наличие сканов в содержимом раздачи: нет
Треклист:
1 Aurora
2 In My Treehouse
3 Ta Nessa Ainda Bicho?
4 Issa E Partido Alto
5 Carnaval Legrand
6 Diz No Pe
7 Meu Mengo
8 Crazy Clock
9 Que Bom
10 E Mulher
11 In My Treehouse (Prelude 1)
12 In My Treehouse (Prelude 2)
 
Лог создания рипа
Exact Audio Copy V0.99 prebeta 4 from 23. January 2008
EAC extraction logfile from 23. June 2011, 18:09
Azymuth / Aurora
Used drive : ATAPI DVD A DH16AASH Adapter: 1 ID: 1
Read mode : Secure
Utilize accurate stream : Yes
Defeat audio cache : Yes
Make use of C2 pointers : No
Read offset correction : 6
Overread into Lead-In and Lead-Out : No
Fill up missing offset samples with silence : Yes
Delete leading and trailing silent blocks : No
Null samples used in CRC calculations : Yes
Used interface : Native Win32 interface for Win NT & 2000
Gap handling : Appended to previous track
Used output format : User Defined Encoder
Selected bitrate : 768 kBit/s
Quality : High
Add ID3 tag : No
Command line compressor : M:\Program Files\Exact Audio Copy\Flac\flac.exe
Additional command line options : -8 -V -T "artist=%a" -T "title=%t" -T "album=%g" -T "date=%y" -T "tracknumber=%n" -T "genre=%m" -T "comment=High Quality, EAC secure, Lossless flac " %s
TOC of the extracted CD
Track | Start | Length | Start sector | End sector
---------------------------------------------------------
1 | 0:00.00 | 5:25.29 | 0 | 24403
2 | 5:25.29 | 7:13.09 | 24404 | 56887
3 | 12:38.38 | 4:21.34 | 56888 | 76496
4 | 16:59.72 | 6:06.36 | 76497 | 103982
5 | 23:06.33 | 4:17.53 | 103983 | 123310
6 | 27:24.11 | 3:23.56 | 123311 | 138591
7 | 30:47.67 | 4:33.19 | 138592 | 159085
8 | 35:21.11 | 4:40.33 | 159086 | 180118
9 | 40:01.44 | 1:24.66 | 180119 | 186484
10 | 41:26.35 | 3:57.28 | 186485 | 204287
11 | 45:23.63 | 1:44.42 | 204288 | 212129
12 | 47:08.30 | 1:17.29 | 212130 | 217933
Track 1
Filename F:\Converted Flac\Azymuth - Aurora\01 - Aurora.wav
Pre-gap length 0:00:02.00
Peak level 97.5 %
Track quality 100.0 %
Test CRC C5B94330
Copy CRC C5B94330
Cannot be verified as accurate (confidence 1) [EC77B609], AccurateRip returned [66A7AF57]
Copy OK
Track 2
Filename F:\Converted Flac\Azymuth - Aurora\02 - In My Treehouse.wav
Peak level 96.6 %
Track quality 100.0 %
Test CRC 23FEBEEE
Copy CRC 23FEBEEE
Track not present in AccurateRip database
Copy OK
Track 3
Filename F:\Converted Flac\Azymuth - Aurora\03 - Tб Nessa Ainda Bicho .wav
Peak level 98.3 %
Track quality 100.0 %
Test CRC 3D6F9B06
Copy CRC 3D6F9B06
Track not present in AccurateRip database
Copy OK
Track 4
Filename F:\Converted Flac\Azymuth - Aurora\04 - Isso Й Partido Alto.wav
Peak level 96.5 %
Track quality 100.0 %
Test CRC 4F344325
Copy CRC 4F344325
Track not present in AccurateRip database
Copy OK
Track 5
Filename F:\Converted Flac\Azymuth - Aurora\05 - Carnival Legrand.wav
Pre-gap length 0:00:00.45
Peak level 76.8 %
Track quality 99.9 %
Test CRC B7BB40DA
Copy CRC B7BB40DA
Track not present in AccurateRip database
Copy OK
Track 6
Filename F:\Converted Flac\Azymuth - Aurora\06 - Diz No Pй.wav
Peak level 89.1 %
Track quality 100.0 %
Test CRC EF47373C
Copy CRC EF47373C
Track not present in AccurateRip database
Copy OK
Track 7
Filename F:\Converted Flac\Azymuth - Aurora\07 - Meu Mengф.wav
Pre-gap length 0:00:00.45
Peak level 95.8 %
Track quality 99.9 %
Test CRC BA04645B
Copy CRC BA04645B
Track not present in AccurateRip database
Copy OK
Track 8
Filename F:\Converted Flac\Azymuth - Aurora\08 - Crazy Clock.wav
Peak level 79.2 %
Track quality 100.0 %
Test CRC 301C46BA
Copy CRC 301C46BA
Track not present in AccurateRip database
Copy OK
Track 9
Filename F:\Converted Flac\Azymuth - Aurora\09 - Que Bom.wav
Pre-gap length 0:00:01.45
Peak level 95.6 %
Track quality 100.0 %
Test CRC E1631377
Copy CRC E1631377
Track not present in AccurateRip database
Copy OK
Track 10
Filename F:\Converted Flac\Azymuth - Aurora\10 - Й Mulher.wav
Peak level 87.7 %
Track quality 100.0 %
Test CRC 89C3502C
Copy CRC 89C3502C
Track not present in AccurateRip database
Copy OK
Track 11
Filename F:\Converted Flac\Azymuth - Aurora\11 - In My Treehouse (Prelude 1).wav
Pre-gap length 0:00:00.45
Peak level 67.0 %
Track quality 100.0 %
Test CRC EEAA8571
Copy CRC EEAA8571
Track not present in AccurateRip database
Copy OK
Track 12
Filename F:\Converted Flac\Azymuth - Aurora\12 - In My Treehouse (Prelude 2).wav
Peak level 69.4 %
Track quality 99.8 %
Test CRC 139504D0
Copy CRC 139504D0
Track not present in AccurateRip database
Copy OK
1 track(s) could not be verified as accurate
11 track(s) not present in the AccurateRip database
No tracks could be verified as accurate
You may have a different pressing from the one(s) in the database
No errors occurred
End of status report
 
Содержание индексной карты (.CUE)
REM GENRE Funk
REM DATE 2011
REM DISCID 9E0B590C
REM COMMENT "ExactAudioCopy v0.99pb4"
PERFORMER "Azymuth "
TITLE "Aurora"
FILE "Azymuth - Aurora\01 - Aurora.wav" WAVE
TRACK 01 AUDIO
TITLE "Aurora"
PERFORMER "Azymuth "
FLAGS PRE DCP
INDEX 01 00:00:00
FILE "Azymuth - Aurora\02 - In My Treehouse.wav" WAVE
TRACK 02 AUDIO
TITLE "In My Treehouse"
PERFORMER "Azymuth "
FLAGS PRE DCP
INDEX 01 00:00:00
FILE "Azymuth - Aurora\03 - Tб Nessa Ainda Bicho .wav" WAVE
TRACK 03 AUDIO
TITLE "Tб Nessa Ainda Bicho?"
PERFORMER "Azymuth "
FLAGS PRE DCP
INDEX 01 00:00:00
FILE "Azymuth - Aurora\04 - Isso Й Partido Alto.wav" WAVE
TRACK 04 AUDIO
TITLE "Isso Й Partido Alto"
PERFORMER "Azymuth "
FLAGS PRE DCP
INDEX 01 00:00:00
TRACK 05 AUDIO
TITLE "Carnival Legrand"
PERFORMER "Azymuth "
FLAGS PRE DCP
INDEX 00 06:05:66
FILE "Azymuth - Aurora\05 - Carnival Legrand.wav" WAVE
INDEX 01 00:00:00
FILE "Azymuth - Aurora\06 - Diz No Pй.wav" WAVE
TRACK 06 AUDIO
TITLE "Diz No Pй"
PERFORMER "Azymuth "
FLAGS PRE DCP
INDEX 01 00:00:00
TRACK 07 AUDIO
TITLE "Meu Mengф"
PERFORMER "Azymuth "
FLAGS PRE DCP
INDEX 00 03:23:11
FILE "Azymuth - Aurora\07 - Meu Mengф.wav" WAVE
INDEX 01 00:00:00
FILE "Azymuth - Aurora\08 - Crazy Clock.wav" WAVE
TRACK 08 AUDIO
TITLE "Crazy Clock"
PERFORMER "Azymuth "
FLAGS PRE DCP
INDEX 01 00:00:00
TRACK 09 AUDIO
TITLE "Que Bom"
PERFORMER "Azymuth "
FLAGS PRE DCP
INDEX 00 04:38:63
FILE "Azymuth - Aurora\09 - Que Bom.wav" WAVE
INDEX 01 00:00:00
FILE "Azymuth - Aurora\10 - Й Mulher.wav" WAVE
TRACK 10 AUDIO
TITLE "Й Mulher"
PERFORMER "Azymuth "
FLAGS PRE DCP
INDEX 01 00:00:00
TRACK 11 AUDIO
TITLE "In My Treehouse (Prelude 1)"
PERFORMER "Azymuth "
FLAGS PRE DCP
INDEX 00 03:56:58
FILE "Azymuth - Aurora\11 - In My Treehouse (Prelude 1).wav" WAVE
INDEX 01 00:00:00
FILE "Azymuth - Aurora\12 - In My Treehouse (Prelude 2).wav" WAVE
TRACK 12 AUDIO
TITLE "In My Treehouse (Prelude 2)"
PERFORMER "Azymuth "
FLAGS PRE DCP
INDEX 01 00:00:00
22:48
604
Нет комментариев. Ваш будет первым!