Поиск

1994 African Jazz Pioneers - Sip 'n' Fly [CD]

1994 African Jazz Pioneers - Sip 'n' Fly [CD]

01. Sip 'n Fly
02. Bhod L'Umilo "To Belch Fire"
03. Uyeyeye
04. Sgaxa 'Mabande "Your Are The Captain"
05. Front Page
06. Bra Ntemi's Kwela
07. Emalangeni Jail
08. Way Back Fifties
09. Randfontein
10. Flying High
11. Uzozo
12. Sunrise "Mpumalanga"
13. Hullo Hullo There Sainbonani

 
Лог создания рипа
Exact Audio Copy V0.99 prebeta 5 from 4. May 2009
EAC extraction logfile from 21. September 2009, 16:54
African Jazz Pioneers / Sip 'n Fly
Used drive  : TSSTcorpCDDVDW SH-S222A   Adapter: 3  ID: 0
Read mode               : Secure
Utilize accurate stream : Yes
Defeat audio cache      : Yes
Make use of C2 pointers : No
Read offset correction                      : 6
Overread into Lead-In and Lead-Out          : No
Fill up missing offset samples with silence : Yes
Delete leading and trailing silent blocks   : No
Null samples used in CRC calculations       : Yes
Used interface                              : Native Win32 interface for Win NT & 2000
Gap handling                                : Appended to previous track
Used output format              : User Defined Encoder
Selected bitrate                : 320 kBit/s
Quality                         : High
Add ID3 tag                     : No
Command line compressor         : C:\Program Files\FLAC\flac.exe
Additional command line options : -8 -T "artist=%a" -T "title=%t" -T "album=%g" -T "date=%y" -T "tracknumber=%n" -T "genre=%m" %s
TOC of the extracted CD
     Track |   Start  |  Length  | Start sector | End sector
    ---------------------------------------------------------
        1  |  0:00.00 |  4:16.32 |         0    |    19231
        2  |  4:16.32 |  4:46.15 |     19232    |    40696
        3  |  9:02.47 |  5:22.68 |     40697    |    64914
        4  | 14:25.40 |  4:56.10 |     64915    |    87124
        5  | 19:21.50 |  4:25.30 |     87125    |   107029
        6  | 23:47.05 |  4:14.52 |    107030    |   126131
        7  | 28:01.57 |  5:02.70 |    126132    |   148851
        8  | 33:04.52 |  6:25.15 |    148852    |   177741
        9  | 39:29.67 |  4:19.33 |    177742    |   197199
       10  | 43:49.25 |  5:02.37 |    197200    |   219886
       11  | 48:51.62 |  5:19.05 |    219887    |   243816
       12  | 54:10.67 |  4:46.05 |    243817    |   265271
       13  | 58:56.72 |  4:18.55 |    265272    |   284676
Track  1
     Filename W:\FLAC rips\African Jazz Pioneers - Sip 'n Fly (1993)\African Jazz Pioneers - Sip 'n Fly - 01 - Sip 'n Fly.wav
     Pre-gap length  0:00:02.00
     Peak level 100.0 %
     Track quality 100.0 %
     Test CRC 3E26E3B9
     Copy CRC 3E26E3B9
     Track not present in AccurateRip database
     Copy OK
Track  2
     Filename W:\FLAC rips\African Jazz Pioneers - Sip 'n Fly (1993)\African Jazz Pioneers - Sip 'n Fly - 02 - Bhod L'Umilo.wav
     Pre-gap length  0:00:01.06
     Peak level 100.0 %
     Track quality 100.0 %
     Test CRC 1CAB25C7
     Copy CRC 1CAB25C7
     Track not present in AccurateRip database
     Copy OK
Track  3
     Filename W:\FLAC rips\African Jazz Pioneers - Sip 'n Fly (1993)\African Jazz Pioneers - Sip 'n Fly - 03 - Uyeyeye.wav
     Pre-gap length  0:00:02.16
     Peak level 100.0 %
     Track quality 100.0 %
     Test CRC 597B29B7
     Copy CRC 597B29B7
     Track not present in AccurateRip database
     Copy OK
Track  4
     Filename W:\FLAC rips\African Jazz Pioneers - Sip 'n Fly (1993)\African Jazz Pioneers - Sip 'n Fly - 04 - Sgaxa Mabande.wav
     Pre-gap length  0:00:02.10
     Peak level 100.0 %
     Track quality 100.0 %
     Test CRC 93732D67
     Copy CRC 93732D67
     Track not present in AccurateRip database
     Copy OK
Track  5
     Filename W:\FLAC rips\African Jazz Pioneers - Sip 'n Fly (1993)\African Jazz Pioneers - Sip 'n Fly - 05 - Front Page.wav
     Pre-gap length  0:00:00.66
     Peak level 100.0 %
     Track quality 100.0 %
     Test CRC 3A54B92D
     Copy CRC 3A54B92D
     Track not present in AccurateRip database
     Copy OK
Track  6
     Filename W:\FLAC rips\African Jazz Pioneers - Sip 'n Fly (1993)\African Jazz Pioneers - Sip 'n Fly - 06 - Bra Ntemi's Kwela.wav
     Pre-gap length  0:00:01.90
     Peak level 100.0 %
     Track quality 99.9 %
     Test CRC 5820BF62
     Copy CRC 5820BF62
     Track not present in AccurateRip database
     Copy OK
Track  7
     Filename W:\FLAC rips\African Jazz Pioneers - Sip 'n Fly (1993)\African Jazz Pioneers - Sip 'n Fly - 07 - Emalangeni.wav
     Pre-gap length  0:00:02.09
     Peak level 100.0 %
     Track quality 100.0 %
     Test CRC 395A3F96
     Copy CRC 395A3F96
     Track not present in AccurateRip database
     Copy OK
Track  8
     Filename W:\FLAC rips\African Jazz Pioneers - Sip 'n Fly (1993)\African Jazz Pioneers - Sip 'n Fly - 08 - Way Back Fifties.wav
     Pre-gap length  0:00:02.42
     Peak level 100.0 %
     Track quality 99.9 %
     Test CRC 55CD23C2
     Copy CRC 55CD23C2
     Track not present in AccurateRip database
     Copy OK
Track  9
     Filename W:\FLAC rips\African Jazz Pioneers - Sip 'n Fly (1993)\African Jazz Pioneers - Sip 'n Fly - 09 - Rondfontontein.wav
     Pre-gap length  0:00:01.69
     Peak level 100.0 %
     Track quality 100.0 %
     Test CRC 9B9E0063
     Copy CRC 9B9E0063
     Track not present in AccurateRip database
     Copy OK
Track 10
     Filename W:\FLAC rips\African Jazz Pioneers - Sip 'n Fly (1993)\African Jazz Pioneers - Sip 'n Fly - 10 - Flying High.wav
     Pre-gap length  0:00:01.37
     Peak level 100.0 %
     Track quality 99.9 %
     Test CRC 987632E9
     Copy CRC 987632E9
     Track not present in AccurateRip database
     Copy OK
Track 11
     Filename W:\FLAC rips\African Jazz Pioneers - Sip 'n Fly (1993)\African Jazz Pioneers - Sip 'n Fly - 11 - Uzozo.wav
     Pre-gap length  0:00:02.13
     Peak level 90.1 %
     Track quality 100.0 %
     Test CRC 738E887E
     Copy CRC 738E887E
     Track not present in AccurateRip database
     Copy OK
Track 12
     Filename W:\FLAC rips\African Jazz Pioneers - Sip 'n Fly (1993)\African Jazz Pioneers - Sip 'n Fly - 12 - Sunrise - Mpumalanga.wav
     Pre-gap length  0:00:02.09
     Peak level 84.2 %
     Track quality 100.0 %
     Test CRC C19B6B2B
     Copy CRC C19B6B2B
     Track not present in AccurateRip database
     Copy OK
Track 13
     Filename W:\FLAC rips\African Jazz Pioneers - Sip 'n Fly (1993)\African Jazz Pioneers - Sip 'n Fly - 13 - Hullo Hullo There - Sanibonani.wav
     Pre-gap length  0:00:02.09
     Peak level 94.6 %
     Track quality 100.0 %
     Test CRC AC7908A9
     Copy CRC AC7908A9
     Track not present in AccurateRip database
     Copy OK
None of the tracks are present in the AccurateRip database
No errors occurred
End of status report
 
 
Содержание индексной карты (.CUE)
REM GENRE Jazz
REM DATE 1993
REM DISCID C10ED30D
REM COMMENT "ExactAudioCopy v0.99pb5"
PERFORMER "African Jazz Pioneers"
TITLE "Sip 'n Fly"
FILE "African Jazz Pioneers - Sip 'n Fly - 01 - Sip 'n Fly.wav" WAVE
  TRACK 01 AUDIO
     TITLE "Sip 'n Fl
     PERFORMER "African Jazz Pioneers"
     INDEX 01 00:00:00
  TRACK 02 AUDIO
     TITLE "Bhod L'Umilo "To Belch Fire""
     PERFORMER "African Jazz Pioneers"
     INDEX 00 04:15:27
FILE "African Jazz Pioneers - Sip 'n Fly - 02 - Bhod L'Umilo.wav" WAVE
     INDEX 01 00:00:00
  TRACK 03 AUDIO
     TITLE "Uyeyeye"
     PERFORMER "African Jazz Pioneers"
     INDEX 00 04:44:03
FILE "African Jazz Pioneers - Sip 'n Fly - 03 - Uyeyeye.wav" WAVE
     INDEX 01 00:00:00
  TRACK 04 AUDIO
     TITLE "Sgaxa 'Mabande "Your Are The Captain""
     PERFORMER "African Jazz Pioneers"
     INDEX 00 05:20:60
FILE "African Jazz Pioneers - Sip 'n Fly - 04 - Sgaxa Mabande.wav" WAVE
     INDEX 01 00:00:00
  TRACK 05 AUDIO
     TITLE "Front Page"
     PERFORMER "African Jazz Pioneers"
     INDEX 00 04:55:35
FILE "African Jazz Pioneers - Sip 'n Fly - 05 - Front Page.wav" WAVE
     INDEX 01 00:00:00
  TRACK 06 AUDIO
     TITLE "Bra Ntemi's Kwela"
PERFORMER "African Jazz Pioneers"
     INDEX 00 04:23:37
FILE "African Jazz Pioneers - Sip 'n Fly - 06 - Bra Ntemi's Kwela.wav" WAVE
     INDEX 01 00:00:00
  TRACK 07 AUDIO
     TITLE "Emalangeni Jail"
     PERFORMER "African Jazz Pioneers"
     INDEX 00 04:12:45
FILE "African Jazz Pioneers - Sip 'n Fly - 07 - Emalangeni.wav" WAVE
     INDEX 01 00:00:00
  TRACK 08 AUDIO
     TITLE "Way Back Fifties"
     PERFORMER "African Jazz Pioneers"
     INDEX 00 05:00:38
FILE "African Jazz Pioneers - Sip 'n Fly - 08 - Way Back Fifties.wav" WAVE
     INDEX 01 00:00:00
  TRACK 09 AUDIO
     TITLE "Randfontein"
     PERFORMER "African Jazz Pioneers"
     INDEX 00 06:23:38
FILE "African Jazz Pioneers - Sip 'n Fly - 09 - Rondfontontein.wav" WAVE
     INDEX 01 00:00:00
  TRACK 10 AUDIO
     TITLE "Flying High"
     PERFORMER "African Jazz Pioneers"
     INDEX 00 04:18:05
FILE "African Jazz Pioneers - Sip 'n Fly - 10 - Flying High.wav" WAVE
     INDEX 01 00:00:00
  TRACK 11 AUDIO
     TITLE "Uzozo"
     PERFORMER "African Jazz Pioneers"
     INDEX 00 05:00:27
FILE "African Jazz Pioneers - Sip 'n Fly - 11 - Uzozo.wav" WAVE
     INDEX 01 00:00:00
  TRACK 12 AUDIO
     TITLE "Sunrise "Mpumalanga""
     PERFORMER "African Jazz Pioneers"
     INDEX 00 05:16:73
FILE "African Jazz Pioneers - Sip 'n Fly - 12 - Sunrise - Mpumalanga.wav" WAVE
     INDEX 01 00:00:00
  TRACK 13 AUDIO
     TITLE "Hullo Hullo There Sainbonani"
     PERFORMER "African Jazz Pioneers"
     INDEX 00 04:43:73
FILE "African Jazz Pioneers - Sip 'n Fly - 13 - Hullo Hullo There - Sanibonani.wav" WAVE
     INDEX 01 00:00:00
Состав:
  • Albert Kumalo — bandleader, guitar
  • Brahms Hlabatau – tenor sax
  • Sello Manyaka – alto sax
  • Mpho Sithole — alto sax
  • Levy Kgasi — trumpet
  • Makhosonke Mrubata — trumpet
  • Phillip Tau — bass
  • Madoda Gxabeka — drums
  • Xolani Maseti — keyboards
  • Khanya Ceza — vocals
22:48
759
Нет комментариев. Ваш будет первым!