Поиск

(bossa nova, brazilian jazz) Gal Costa - Gal Costa canta Tom Jobim ao vivo (2 CD) - 1999, FLAC (image+.cue), lossless

(bossa nova, brazilian jazz) Gal Costa - Gal Costa canta Tom Jobim ao vivo (2 CD) - 1999, FLAC (image+.cue), lossless
Треклист:
Gal Costa / Gal Costa canta Tom Jobim ao vivo (2 CD)
Жанр: bossa nova, samba, brazilian jazz
Страна-производитель диска: Brazil
Год издания: 1999
Издатель (лейбл): BMG Brazil Ltda
Номер по каталогу: 7432170979-2
Страна: Brazil
Аудиокодек: FLAC (*.flac)
Тип рипа: image+.cue
Битрейт аудио: lossless
Продолжительность: 0:39:45.25 + 0:39:17.50
Источник (релизер): собственный рип с оригинального диска
Наличие сканов в содержимом раздачи: нет
Треклист:
Disco 1
01. Fotografia 04:24
02. Por Causa de você 04:26
03. Garota de Ipanema 03:41
04. Derradeira Primavera 02:40
05. Wave 03:20
06. Estrada do Sol 02:27
07. Brigas Nunca Mais/Discussão 02:56
08. Piano na Mangueira 02:58
09. Esquecendo Você 03:02
10. Se Todos Fossem Iguais a Você 03:21
11. Chega de Saudade 04:11
12. Samba do Avião 02:21
Disco 2
01. Anos Dourados 03:14
02. Desafinado 03:50
03. Corcovado 03:25
04. Lígia 02:43
05. Tema De Amor De Gabriela 03:17
06. Janelas Abertas 03:53
07. Bonita 04:00
08. Triste 02:08
09. Chovendo Na Roseira 03:24
10. Falando De Amor 03:01
11. A Felicidade 03:38
12. Frevo 02:44
 
Описание с возможно любезного разрешения asarych
Настоящее имя певицы - Maria da Graça Costa Penna Burgos. Родились она в 1946 году в г. Сальвадоре, бразильского штата Bahia и воспитывалась в доме, где радио не выключалось никогда. Ее раннее музыкальное развитие прошло в магазине пластинок, где она начала работать еще подростком, параллельно учась в музыкальной школе по классу скрипки. Затем Мария стала петь в знаменитом бразильском клубе Tenis Baiano - с друзьями-музыкантами, которые позднее «выросли» в звезд бразильского джаза. Конечно же, лидером был Caetano Veloso, уже с ранних 60-х ставший настоящим пионером бразильской популярной музыки.
Проработав несколько лет в клубе, Мария решила начать сольную карьеру. Для начала она взяла себе псевдоним - Гал Коста (это название одной из дюн на побережье Бразилии) и уже никогда больше не возвращалась к своему настоящему имени. Гал перепробовала все и прошла очень сложный и извилистый путь: от босоногой хиппи, с кольцами в носу, ушах и пупке, до певицы, олицетворяющей сегодня бразильскую музыку во всем мире.
Будучи, прекрасным инструменталистом-скрипачом, Гал Коста никогда не писала своей музыки. Она – интерпретатор музыки, написанной другими авторами, но за честь подарить ей песню сегодня борются все композиторы Бразилии. Как писал о ней журнал Down Beat: «Гал Коста – самый лучший экспортный товар сегодняшней Бразилии», и в этом нет никакого преувеличения – ей нет равных в сегодняшней бразильской джазовой музыке.
Наибольшую популярность и славу она получила за многолетнее исполнение песен Тома (так его называют бразильцы) Жобима. В Бразилии, определенно, нет ни одной певицы, не исполнявшей этих песен, но Гал стоит на голову выше всех уже много лет. Она довела музыку Жобима до уровня, которого мог достигнуть только сам Жобим. После знакомства с творчеством Гал Коста у меня лично не остается никакого желания слушать босса-новы Жобима в каком-либо другом исполнении.
Tеперь о самом альбоме. Концерт этот, взятый из DVD умещается на двух CD, в нем 24 песни и все они написаны одним композитором – классиком бразильского и всемирного джаза Антонио Карлосом Жобимом. Наряду с супер-известными «Desafinado», «Girl from Ipanema», «Corcovado», «Bonita», «Wave» и др. Гал исполняет и несколько малоизвестных песен Великого Мастера. Я совершенно не могу выделить лучшую или худшую песню этого концерта. Все они – жемчужины, которые не требуют никакой огранки или полировки. Я прослушал этот альбом уже не менее 30 раз, и каждый раз восприятие от услышанного не тускнеет. Этот альбом – настоящая Библия для тех, кто любит музыку Жобима. Гал довела ее до таких высот, после которых теряется смысл слушать других интерпретаторов этих песен, все остальное (на мой взгляд) будет беднее, тусклее и преснее. Я лично (как уже говорил выше), с появлением Гал в моей коллекции, перестал слушать другие версии песен Антонио Карлоса.
Я знаю, что меня могут убить истинные любители босса-новы, но, да простит меня Всевышний, я смею утверждать, что она превзошла даже Гетца с Жилберто. Гал Коста – это Том Жобим, доведенный до абсолюта.
Не стану разбирать каждую песню в отдельности: это бессмысленно, т.к. все они – настоящие шедевры своего жанра.
 
Лог создания рипа Disc 1
Exact Audio Copy V1.0 beta 3 from 29. August 2011
Отчёт EAC об извлечении, выполненном 14. октября 2012, 21:34
Gal Costa / Canta Tom Jobim - Ao Vivo
Дисковод: TSSTcorpCDDVDW SH-222AL Adapter: 3 ID: 0
Режим чтения : Достоверность
Использование точного потока : Да
Отключение кэша аудио : Да
Использование указателей C2 : Нет
Коррекция смещения при чтении : 6
Способность читать области Lead-in и Lead-out : Нет
Заполнение пропущенных сэмплов тишиной : Да
Удаление блоков с тишиной в начале и конце : Нет
При вычислениях CRC использовались нулевые сэмплы : Да
Интерфейс : Встроенный Win32-интерфейс для Win NT/2000
Выходной формат : Внутренние WAV-операции
Формат сэмплов : 44.100 Гц; 16 бит; стерео
TOC извлечённого CD
Трек | Старт | Длительность | Начальный сектор | Конечный сектор
---------------------------------------------------------------------
1 | 0:00.00 | 4:24.27 | 0 | 19826
2 | 4:24.27 | 4:25.60 | 19827 | 39761
3 | 8:50.12 | 3:40.50 | 39762 | 56311
4 | 12:30.62 | 2:39.68 | 56312 | 68304
5 | 15:10.55 | 3:19.40 | 68305 | 83269
6 | 18:30.20 | 2:26.57 | 83270 | 94276
7 | 20:57.02 | 2:55.45 | 94277 | 107446
8 | 23:52.47 | 2:57.68 | 107447 | 120789
9 | 26:50.40 | 3:01.65 | 120790 | 134429
10 | 29:52.30 | 3:21.00 | 134430 | 149504
11 | 33:13.30 | 4:11.17 | 149505 | 168346
12 | 37:24.47 | 2:20.53 | 168347 | 178899
Характеристики диапазона извлечения и сообщения об ошибках
Выбранный диапазон
Имя файла E:\Music\Gal Costa\Gal Costa - Canta Tom Jobim - Ao Vivo.wav
Пиковый уровень 100.0 %
Скорость извлечения 7.0 X
Качество диапазона 100.0 %
CRC теста A517F2A6
CRC копии A517F2A6
Копирование... OK
Ошибок не произошло
AccurateRip: сводка
Трек 1 : извлечено точно (доверие 4) [114564F2] (AR v1)
Трек 2 : извлечено точно (доверие 4) [9D1D8693] (AR v1)
Трек 3 : извлечено точно (доверие 4) [1151877A] (AR v1)
Трек 4 : извлечено точно (доверие 4) [9F18D5FC] (AR v1)
Трек 5 : извлечено точно (доверие 4) [971F7930] (AR v1)
Трек 6 : извлечено точно (доверие 4) [7F0E04DC] (AR v1)
Трек 7 : извлечено точно (доверие 4) [D5FDE2E5] (AR v1)
Трек 8 : извлечено точно (доверие 4) [8A9E25FE] (AR v1)
Трек 9 : извлечено точно (доверие 4) [CD5D1BD2] (AR v1)
Трек 10 : извлечено точно (доверие 4) [2B227D38] (AR v1)
Трек 11 : извлечено точно (доверие 4) [C5CABCC7] (AR v1)
Трек 12 : извлечено точно (доверие 4) [5BF0B2F8] (AR v1)
Все треки извлечены точно
Конец отчёта
 
Лог создания рипа Disc 2
Exact Audio Copy V1.0 beta 3 from 29. August 2011
Отчёт EAC об извлечении, выполненном 14. октября 2012, 21:51
Gal Costa / Gal Costa Canta Tom Jobim (ao vivo) - Disco 2
Дисковод: TSSTcorpCDDVDW SH-222AL Adapter: 3 ID: 0
Режим чтения : Достоверность
Использование точного потока : Да
Отключение кэша аудио : Да
Использование указателей C2 : Нет
Коррекция смещения при чтении : 6
Способность читать области Lead-in и Lead-out : Нет
Заполнение пропущенных сэмплов тишиной : Да
Удаление блоков с тишиной в начале и конце : Нет
При вычислениях CRC использовались нулевые сэмплы : Да
Интерфейс : Встроенный Win32-интерфейс для Win NT/2000
Выходной формат : Внутренние WAV-операции
Формат сэмплов : 44.100 Гц; 16 бит; стерео
TOC извлечённого CD
Трек | Старт | Длительность | Начальный сектор | Конечный сектор
---------------------------------------------------------------------
1 | 0:00.00 | 3:14.15 | 0 | 14564
2 | 3:14.15 | 3:49.62 | 14565 | 31801
3 | 7:04.02 | 3:24.43 | 31802 | 47144
4 | 10:28.45 | 2:43.10 | 47145 | 59379
5 | 13:11.55 | 3:16.70 | 59380 | 74149
6 | 16:28.50 | 3:53.30 | 74150 | 91654
7 | 20:22.05 | 4:00.15 | 91655 | 109669
8 | 24:22.20 | 2:08.32 | 109670 | 119301
9 | 26:30.52 | 3:23.55 | 119302 | 134581
10 | 29:54.32 | 3:00.68 | 134582 | 148149
11 | 32:55.25 | 3:38.37 | 148150 | 164536
12 | 36:33.62 | 2:43.63 | 164537 | 176824
Характеристики диапазона извлечения и сообщения об ошибках
Выбранный диапазон
Имя файла E:\Music\Gal Costa\Gal Costa - Gal Costa Canta Tom Jobim (ao vivo) - Disco 2.wav
Пиковый уровень 98.8 %
Скорость извлечения 7.0 X
Качество диапазона 100.0 %
CRC теста 94B8AF10
CRC копии 94B8AF10
Копирование... OK
Ошибок не произошло
AccurateRip: сводка
Трек 1 : извлечено точно (доверие 2) [D33FBD71] (AR v2)
Трек 2 : извлечено точно (доверие 2) [88796AFD] (AR v2)
Трек 3 : извлечено точно (доверие 2) [63CCA48E] (AR v2)
Трек 4 : извлечено точно (доверие 2) [1A3649D6] (AR v2)
Трек 5 : извлечено точно (доверие 2) [0EE44263] (AR v2)
Трек 6 : извлечено точно (доверие 2) [41E31323] (AR v2)
Трек 7 : извлечено точно (доверие 2) [5A8454CF] (AR v2)
Трек 8 : извлечено точно (доверие 2) [6CDF5F2A] (AR v2)
Трек 9 : извлечено точно (доверие 2) [AA9FE724] (AR v2)
Трек 10 : извлечено точно (доверие 2) [559E8827] (AR v2)
Трек 11 : извлечено точно (доверие 2) [15571346] (AR v2)
Трек 12 : извлечено точно (доверие 2) [02F56AD8] (AR v2)
Все треки извлечены точно
Конец отчёта
 
Содержание индексной карты (.CUE)
REM GENRE Samba
REM DATE 1999
REM DISCID 9B09510C
REM COMMENT "ExactAudioCopy v1.0b3"
PERFORMER "Gal Costa"
TITLE "Canta Tom Jobim - Ao Vivo"
FILE "Gal Costa - Canta Tom Jobim - Ao Vivo.flac" WAVE
TRACK 01 AUDIO
TITLE "Fotografia"
PERFORMER "Gal Costa"
ISRC BRBMG9900465
INDEX 01 00:00:00
TRACK 02 AUDIO
TITLE "Por Causa de voce"
PERFORMER "Gal Costa"
ISRC BRBMG9900466
INDEX 01 04:24:27
TRACK 03 AUDIO
TITLE "Garota de Ipanema"
PERFORMER "Gal Costa"
ISRC BRBMG9900467
INDEX 01 08:50:12
TRACK 04 AUDIO
TITLE "Derradeira Primavera"
PERFORMER "Gal Costa"
ISRC BRBMG9900468
INDEX 01 12:30:62
TRACK 05 AUDIO
TITLE "Wave"
PERFORMER "Gal Costa"
ISRC BRBMG9900469
INDEX 01 15:10:55
TRACK 06 AUDIO
TITLE "Estrada do Sol"
PERFORMER "Gal Costa"
ISRC BRBMG9900470
INDEX 01 18:30:20
TRACK 07 AUDIO
TITLE "Brigas Nunca Mais/Discussao"
PERFORMER "Gal Costa"
ISRC BRBMG9900471
INDEX 01 20:57:02
TRACK 08 AUDIO
TITLE "Piano na Mangueira"
PERFORMER "Gal Costa"
ISRC BRBMG9900473
INDEX 01 23:52:47
TRACK 09 AUDIO
TITLE "Esquecendo Voce"
PERFORMER "Gal Costa"
ISRC BRBMG9900474
INDEX 01 26:50:40
TRACK 10 AUDIO
TITLE "Se Todos Fossem Iguais a Voce"
PERFORMER "Gal Costa"
ISRC BRBMG9900475
INDEX 01 29:52:30
TRACK 11 AUDIO
TITLE "Chega de Saudade"
PERFORMER "Gal Costa"
ISRC BRBMG9900476
INDEX 01 33:13:30
TRACK 12 AUDIO
TITLE "Samba do Aviao"
PERFORMER "Gal Costa"
ISRC BRBMG9900477
INDEX 01 37:24:47
REM GENRE MPB
REM DATE 1999
REM DISCID B509350C
REM COMMENT "ExactAudioCopy v1.0b3"
PERFORMER "Gal Costa"
TITLE "Gal Costa Canta Tom Jobim (ao vivo) - Disco 2"
FILE "Gal Costa - Gal Costa Canta Tom Jobim (ao vivo) - Disco 2.flac" WAVE
TRACK 01 AUDIO
TITLE "Anos Dourados"
PERFORMER "Gal Costa"
ISRC BRBMG9900478
INDEX 01 00:00:00
TRACK 02 AUDIO
TITLE "Desafinado"
PERFORMER "Gal Costa"
ISRC BRBMG9900479
INDEX 01 03:14:15
TRACK 03 AUDIO
TITLE "Corcovado"
PERFORMER "Gal Costa"
ISRC BRBMG9900480
INDEX 01 07:04:02
TRACK 04 AUDIO
TITLE "Ligia"
PERFORMER "Gal Costa"
ISRC BRBMG9900481
INDEX 01 10:28:45
TRACK 05 AUDIO
TITLE "Tema De Amor De Gabriela"
PERFORMER "Gal Costa"
ISRC BRBMG9900482
INDEX 01 13:11:55
TRACK 06 AUDIO
TITLE "Janelas Abertas"
PERFORMER "Gal Costa"
ISRC BRBMG9900483
INDEX 01 16:28:50
TRACK 07 AUDIO
TITLE "Bonita"
PERFORMER "Gal Costa"
ISRC BRBMG9900484
INDEX 01 20:22:05
TRACK 08 AUDIO
TITLE "Triste"
PERFORMER "Gal Costa"
ISRC BRBMG9900485
INDEX 01 24:22:20
TRACK 09 AUDIO
TITLE "Chovendo Na Roseira"
PERFORMER "Gal Costa"
ISRC BRBMG9900485
INDEX 01 26:30:52
TRACK 10 AUDIO
TITLE "Falando De Amor"
PERFORMER "Gal Costa"
ISRC BRBMG9900487
INDEX 01 29:54:32
TRACK 11 AUDIO
TITLE "A Felicidade"
PERFORMER "Gal Costa"
ISRC BRBMG9900488
INDEX 01 32:55:25
TRACK 12 AUDIO
TITLE "Frevo"
PERFORMER "Gal Costa"
ISRC BRBMG9900489
INDEX 01 36:33:62
Доп. информация: Gravado no Palace (SP) nos dias 8,9 e 10 de setembro de 1999
 
Состав
Piano acustico, arranjo e regencia: Cristovao Bastos
Celo: Iura Ranevski
Sax alto, sax soprano e flauta: Ze Canuto
Bateria: Jurim Moreira
Baixo eletrico e biaxo Lon: Andre Neiva
Percussao: Sidinho Moreira
Violao e guitarra: Marcos Teixeira
05:20
484
Нет комментариев. Ваш будет первым!