Поиск

(Bop, Afro-Cuban Jazz) Dizzy Gillespie y Machito - Afro-Cuban Jazz Moods (1976) - 1990, FLAC (image+.cue), lossless

Треклист:
Dizzy Gillespie y Machito – Afro-Cuban Jazz Moods (1976)
Жанр: Bop, Afro-Cuban Jazz
Страна-производитель диска: USA
Год издания: 1990
Издатель (лейбл): OJC/Pablo
Номер по каталогу: OJCCD-447-2 (2310-771)
Аудиокодек: FLAC (*.flac)
Тип рипа: image+.cue
Битрейт аудио: lossless
Продолжительность: 32:12
Источник: net
Наличие сканов в содержимом раздачи: да
Треклист:
01. Oro, Incienso Y Mirra (15:46)
02. Calidoscopico (Three Afro-Cuban Jazz Moods I) (5:09)
03. Pensativo (Three Afro-Cuban Jazz Moods II) (5:25)
04. Exuberante (Three Afro-Cuban Jazz Moods III) (5:52)
 
 
Лог создания рипа
Exact Audio Copy V1.0 beta 2 from 29. April 2011
EAC extraction logfile from 10. November 2011, 14:13
Dizzy Gillespie y Machito / Afro-Cuban Jazz Moods
Used drive : Memorex 52MAXX 3252AJ1 Adapter: 1 ID: 0
Read mode : Secure
Utilize accurate stream : Yes
Defeat audio cache : Yes
Make use of C2 pointers : No
Read offset correction : 6
Overread into Lead-In and Lead-Out : No
Fill up missing offset samples with silence : Yes
Delete leading and trailing silent blocks : No
Null samples used in CRC calculations : Yes
Used interface : Native Win32 interface for Win NT & 2000
Used output format : User Defined Encoder
Selected bitrate : 1024 kBit/s
Quality : High
Add ID3 tag : No
Command line compressor : C:\Program Files (x86)\Exact Audio Copy\wavpack.exe
Additional command line options : -w "Artist=%artist%" -w "Title=%title%" -w "Album=%albumtitle%" -w "Year=%year%" -w "Track=%tracknr%" -w "Genre=%genre%" -h %source% %dest%
TOC of the extracted CD
Track | Start | Length | Start sector | End sector
---------------------------------------------------------
1 | 0:00.00 | 15:46.00 | 0 | 70949
2 | 15:46.00 | 5:09.10 | 70950 | 94134
3 | 20:55.10 | 5:25.00 | 94135 | 118509
4 | 26:20.10 | 5:52.07 | 118510 | 144916
Range status and errors
Selected range
Filename C:\Users\M@ce\Music\Archives\Rips\Dizzy Gillespie y Machito - Afro-Cuban Jazz Moods.wav
Peak level 97.9 %
Extraction speed 8.3 X
Range quality 99.9 %
Test CRC ECB921FC
Copy CRC ECB921FC
Copy OK
No errors occurred
AccurateRip summary
Track 1 accurately ripped (confidence 2) [65DDE859] (AR v1)
Track 2 accurately ripped (confidence 2) [F70F8791] (AR v1)
Track 3 accurately ripped (confidence 2) [02AC1741] (AR v1)
Track 4 accurately ripped (confidence 2) [E9E0C2A4] (AR v1)
All tracks accurately ripped
End of status report
---- CUETools DB Plugin V2.1.2
[CTDB TOCID: Uhq92qpbpXW30QLSBr3.WwvpYxY-] disk not present in database, Submit result: Uhq92qpbpXW30QLSBr3.WwvpYxY- has been uploaded
==== Log checksum D5F91FB0E48D21F42A19E4D5067449A9D0CD2E66FF748D8182D80B59B03E084E ====
 
Содержание индексной карты (.CUE)
REM GENRE Jazz
REM DATE 1976
REM DISCID 36078C04
REM COMMENT "ExactAudioCopy v1.0b2"
PERFORMER "Dizzy Gillespie y Machito"
TITLE "Afro-Cuban Jazz Moods"
FILE "Dizzy Gillespie y Machito - Afro-Cuban Jazz Moods.flac" WAVE
TRACK 01 AUDIO
TITLE "Oro, Incienso Y Mirra"
PERFORMER "Dizzy Gillespie y Machito"
INDEX 01 00:00:00
TRACK 02 AUDIO
TITLE "Calidoscopico (Three Afro-Cuban Jazz Moods I)"
PERFORMER "Dizzy Gillespie y Machito"
INDEX 00 15:42:52
INDEX 01 15:46:00
TRACK 03 AUDIO
TITLE "Pensativo (Three Afro-Cuban Jazz Moods II)"
PERFORMER "Dizzy Gillespie y Machito"
INDEX 00 20:52:55
INDEX 01 20:55:10
TRACK 04 AUDIO
TITLE "Exuberante (Three Afro-Cuban Jazz Moods III)"
PERFORMER "Dizzy Gillespie y Machito"
INDEX 00 26:16:42
INDEX 01 26:20:10
04:21
291
Нет комментариев. Ваш будет первым!