Вы используете незарегистрированную версию компонента "Вкладки"!

Поиск

(Bop, Hard Bop, Saxophone Jazz) Frank Morgan and the McCoy Tyner Trio / Major Changes - 1987, FLAC (tracks+.cue), lossless

(Bop, Hard Bop, Saxophone Jazz) Frank Morgan and the McCoy Tyner Trio / Major Changes - 1987, FLAC (tracks+.cue), lossless
Треклист:
Frank Morgan and the McCoy Tyner Trio / Major Changes
Жанр: Bop, Hard Bop, Saxophone Jazz
Год издания диска: 1987
Издатель (лейбл): Contemporary Records
Номер по каталогу: CCD-14039-2
Страна: USA Minneapolis, MN
Аудиокодек: FLAC (*.flac)
Тип рипа: tracks+.cue
Битрейт аудио: lossless
Продолжительность: 00:57:04
Источник (релизер): Willieissilly
Наличие сканов в содержимом раздачи: нет

Frank Morgan (alto saxophone)
McCoy Tyner (piano)
Avery Sharpe (bass)
Louis Hayes (drums)

01. Changes [05:11]
02. How Deep is the Ocean [08:19]
03. Emily [04:22]
04. Search for Peace [07:01]
05. Frank's Back [06:12]
06. All the Things You Are [05:47]
07. Theme from Love Story [10:47]
08. So What [09:41]

 
Лог создания рипа
X Lossless Decoder version 20110821 (136.1)
XLD extraction logfile from 2011-09-01 15:00:33 -0700
Frank Morgan / Major Changes
Used drive : MATSHITA DVD-R UJ-868 (revision KB19)
Ripper mode : XLD Secure Ripper
Disable audio cache : OK for the drive with a cache less than 1375KiB
Make use of C2 pointers : NO
Read offset correction : 102
Max retry count : 100
Gap status : Analyzed, Appended (except HTOA)
TOC of the extracted CD
Track | Start | Length | Start sector | End sector
---------------------------------------------------------
1 | 00:00:00 | 05:13:40 | 0 | 23514
2 | 05:13:40 | 08:22:70 | 23515 | 61234
3 | 13:36:35 | 04:25:17 | 61235 | 81126
4 | 18:01:52 | 07:02:65 | 81127 | 112841
5 | 25:04:42 | 06:12:73 | 112842 | 140814
6 | 31:17:40 | 05:50:52 | 140815 | 167116
7 | 37:08:17 | 10:49:30 | 167117 | 215821
8 | 47:57:47 | 09:41:15 | 215822 | 259411
AccurateRip Summary
Track 01 : OK (confidence 2)
Track 02 : OK (confidence 2)
Track 03 : OK (confidence 2)
Track 04 : OK (confidence 2)
Track 05 : OK (confidence 2)
Track 06 : OK (confidence 2)
Track 07 : OK (confidence 2)
Track 08 : OK (confidence 2)
->All tracks accurately ripped.
All Tracks
Album gain : -0.94 dB
Peak : 0.949341
Statistics
Read error : 0
Jitter error (maybe fixed) : 0
Retry sector count : 0
Damaged sector count : 0
Track 01
Filename : /Users/willieissilly/Desktop/Torrents/01 - Changes.flac
Pre-gap length : 00:02:00
Track gain : -0.67 dB
Peak : 0.949341
CRC32 hash (test run) : 67EFD2B7
CRC32 hash : 67EFD2B7
CRC32 hash (skip zero) : 52BE789B
AccurateRip signature : 1D8C71A2
->Accurately ripped! (confidence 2)
Statistics
Read error : 0
Jitter error (maybe fixed) : 0
Retry sector count : 0
Damaged sector count : 0
Track 02
Filename : /Users/willieissilly/Desktop/Torrents/02 - How Deep is the Ocean.flac
Pre-gap length : 00:02:25
Track gain : -1.40 dB
Peak : 0.880768
CRC32 hash (test run) : 95C15820
CRC32 hash : 95C15820
CRC32 hash (skip zero) : 40F42506
AccurateRip signature : 2F8490A6
->Accurately ripped! (confidence 2)
Statistics
Read error : 0
Jitter error (maybe fixed) : 0
Retry sector count : 0
Damaged sector count : 0
Track 03
Filename : /Users/willieissilly/Desktop/Torrents/03 - Emily.flac
Pre-gap length : 00:03:38
Track gain : -1.02 dB
Peak : 0.739075
CRC32 hash (test run) : 055443FB
CRC32 hash : 055443FB
CRC32 hash (skip zero) : 7F0A6E73
AccurateRip signature : 6F9AB907
->Accurately ripped! (confidence 2)
Statistics
Read error : 0
Jitter error (maybe fixed) : 0
Retry sector count : 0
Damaged sector count : 0
Track 04
Filename : /Users/willieissilly/Desktop/Torrents/04 - Search for Peace.flac
Pre-gap length : 00:03:00
Track gain : -0.96 dB
Peak : 0.826935
CRC32 hash (test run) : 10C1D84A
CRC32 hash : 10C1D84A
CRC32 hash (skip zero) : C9E30B3F
AccurateRip signature : 43933727
->Accurately ripped! (confidence 2)
Statistics
Read error : 0
Jitter error (maybe fixed) : 0
Retry sector count : 0
Damaged sector count : 0
Track 05
Filename : /Users/willieissilly/Desktop/Torrents/05 - Frank's Back.flac
Pre-gap length : 00:01:62
Track gain : 0.25 dB
Peak : 0.845367
CRC32 hash (test run) : 94F98368
CRC32 hash : 94F98368
CRC32 hash (skip zero) : 70FFFC7A
AccurateRip signature : 037A2A12
->Accurately ripped! (confidence 2)
Statistics
Read error : 0
Jitter error (maybe fixed) : 0
Retry sector count : 0
Damaged sector count : 0
Track 06
Filename : /Users/willieissilly/Desktop/Torrents/06 - All the Things You Are.flac
Pre-gap length : 00:00:50
Track gain : -0.55 dB
Peak : 0.819916
CRC32 hash (test run) : E8A3BA3D
CRC32 hash : E8A3BA3D
CRC32 hash (skip zero) : 07DE616F
AccurateRip signature : 093F8E3D
->Accurately ripped! (confidence 2)
Statistics
Read error : 0
Jitter error (maybe fixed) : 0
Retry sector count : 0
Damaged sector count : 0
Track 07
Filename : /Users/willieissilly/Desktop/Torrents/07 - Theme from Love Story.flac
Pre-gap length : 00:03:17
Track gain : -1.06 dB
Peak : 0.803619
CRC32 hash (test run) : 18DAD5AD
CRC32 hash : 18DAD5AD
CRC32 hash (skip zero) : 1C769EE0
AccurateRip signature : 9005A9D7
->Accurately ripped! (confidence 2)
Statistics
Read error : 0
Jitter error (maybe fixed) : 0
Retry sector count : 0
Damaged sector count : 0
Track 08
Filename : /Users/willieissilly/Desktop/Torrents/08 - So What.flac
Pre-gap length : 00:01:47
Track gain : -1.32 dB
Peak : 0.818939
CRC32 hash (test run) : 396C40C1
CRC32 hash : 396C40C1
CRC32 hash (skip zero) : FAA44F54
AccurateRip signature : 23E632D1
->Accurately ripped! (confidence 2)
Statistics
Read error : 0
Jitter error (maybe fixed) : 0
Retry sector count : 0
Damaged sector count : 0
No errors occurred
End of status report
 
Содержание индексной карты (.CUE)
TITLE "Major Changes"
PERFORMER "Frank Morgan"
REM GENRE "Jazz"
REM DATE "1987"
REM DISCNUMBER 1
REM TOTALDISCS 1
REM DISCID 6E0D8208
REM REPLAYGAIN_ALBUM_GAIN -0.94 dB
REM REPLAYGAIN_ALBUM_PEAK 0.949341
FILE "01 - Changes.flac" WAVE
TRACK 01 AUDIO
TITLE "Changes"
SONGWRITER "McCoy Tyner"
REM REPLAYGAIN_TRACK_GAIN -0.67 dB
REM REPLAYGAIN_TRACK_PEAK 0.949341
INDEX 01 00:00:00
TRACK 02 AUDIO
TITLE "How Deep is the Ocean"
SONGWRITER "Irving Berlin"
REM REPLAYGAIN_TRACK_GAIN -1.40 dB
REM REPLAYGAIN_TRACK_PEAK 0.880768
INDEX 00 05:11:15
FILE "02 - How Deep is the Ocean.flac" WAVE
INDEX 01 00:00:00
TRACK 03 AUDIO
TITLE "Emily"
SONGWRITER "Johnny Mercer/Johnny Mandel"
REM REPLAYGAIN_TRACK_GAIN -1.02 dB
REM REPLAYGAIN_TRACK_PEAK 0.739075
INDEX 00 08:19:32
FILE "03 - Emily.flac" WAVE
INDEX 01 00:00:00
TRACK 04 AUDIO
TITLE "Search for Peace"
SONGWRITER "McCoy Tyner"
REM REPLAYGAIN_TRACK_GAIN -0.96 dB
REM REPLAYGAIN_TRACK_PEAK 0.826935
INDEX 00 04:22:17
FILE "04 - Search for Peace.flac" WAVE
INDEX 01 00:00:00
TRACK 05 AUDIO
TITLE "Frank's Back"
SONGWRITER "McCoy Tyner"
REM REPLAYGAIN_TRACK_GAIN 0.25 dB
REM REPLAYGAIN_TRACK_PEAK 0.845367
INDEX 00 07:01:03
FILE "05 - Frank's Back.flac" WAVE
INDEX 01 00:00:00
TRACK 06 AUDIO
TITLE "All the Things You Are"
SONGWRITER "Oscar Hammerstein II/Jerome Kern"
REM REPLAYGAIN_TRACK_GAIN -0.55 dB
REM REPLAYGAIN_TRACK_PEAK 0.819916
INDEX 00 06:12:23
FILE "06 - All the Things You Are.flac" WAVE
INDEX 01 00:00:00
TRACK 07 AUDIO
TITLE "Theme from Love Story"
SONGWRITER "Sigman/Lai"
REM REPLAYGAIN_TRACK_GAIN -1.06 dB
REM REPLAYGAIN_TRACK_PEAK 0.803619
INDEX 00 05:47:35
FILE "07 - Theme from Love Story.flac" WAVE
INDEX 01 00:00:00
TRACK 08 AUDIO
TITLE "So What"
SONGWRITER "Miles Davis"
REM REPLAYGAIN_TRACK_GAIN -1.32 dB
REM REPLAYGAIN_TRACK_PEAK 0.818939
INDEX 00 10:47:58
FILE "08 - So What.flac" WAVE
INDEX 01 00:00:00
Any questions - support@pro-jazz.com. Есть вопросы - support@pro-jazz.com
11:05
278
Нет комментариев. Ваш будет первым!