Поиск

(Bop, Big Band) Thad Jones & Mel Lewis - Central Park North {1969, ECD} - 2004, APE (tracks+.cue), lossless

(Bop, Big Band) Thad Jones & Mel Lewis - Central Park North {1969, ECD} - 2004, APE (tracks+.cue), lossless
Треклист:
♦ Thad Jones & Mel Lewis - Central Park North {1969, ECD} ♦
Жанр: Bop, Big Band
Страна-производитель диска: Россия
Год издания: 2004
Аудиокодек: APE (*.ape)
Тип рипа: tracks+.cue
Битрейт аудио: lossless
Продолжительность: 00:37:52
Источник (релизер): Рип с диска.
Наличие сканов в содержимом раздачи: да
Треклист:
01. Tow Away Zone [04:30]
02. Quietude [04:06]
03. Jive Samba [08:54]
04. The Groove Merchant [05:12]
05. Big Dipper [05:54]
06. Central Park North [09:15]
 
Лог создания рипа
Exact Audio Copy V1.0 beta 3 from 29. August 2011
EAC extraction logfile from 9. June 2013, 23:35
Thad Jones & Mel Lewis   / Central Park North
Used drive  : Optiarc DVD RW AD-5200A   Adapter: 0  ID: 0
Read mode               : Secure
Utilize accurate stream : Yes
Defeat audio cache      : Yes
Make use of C2 pointers : No
Read offset correction                      : 48
Overread into Lead-In and Lead-Out          : No
Fill up missing offset samples with silence : Yes
Delete leading and trailing silent blocks   : No
Null samples used in CRC calculations       : Yes
Used interface                              : Native Win32 interface for Win NT & 2000
Gap handling                                : Appended to previous track
Used output format              : User Defined Encoder
Selected bitrate                : 128 kBit/s
Quality                         : High
Add ID3 tag                     : No
Command line compressor         : F:\Program Files\Monkey's Audio\wapet.exe
Additional command line options : %dest% -t "Genre=%genre%" -t "Artist=%artist%" -t "Title=%title%" -t "Album=%albumtitle%" -t "Year=%year%" -t "Track=%tracknr%" -t "Comment=%comment%" mac.exe %source% %dest% -c3000
TOC of the extracted CD
     Track |   Start  |  Length  | Start sector | End sector
    ---------------------------------------------------------
        1  |  0:00.00 |  4:30.60 |         0    |    20309
        2  |  4:30.60 |  4:06.12 |     20310    |    38771
        3  |  8:36.72 |  8:54.05 |     38772    |    78826
        4  | 17:31.02 |  5:12.13 |     78827    |   102239
        5  | 22:43.15 |  5:54.20 |    102240    |   128809
        6  | 28:37.35 |  9:15.05 |    128810    |   170439
        7  | 40:24.40 | 33:33.35 |    181840    |   332849
Track  1
     Filename F:\2004.Thad Jones & Mel Lewis - Central Park North\01. Tow Away Zone.wav
     Pre-gap length  0:00:02.00
     Peak level 96.5 %
     Extraction speed 2.4 X
     Track quality 100.0 %
     Test CRC FA9CA6BB
     Copy CRC FA9CA6BB
     Track not present in AccurateRip database
     Copy OK
Track  2
     Filename F:\2004.Thad Jones & Mel Lewis - Central Park North\02. Quietude.wav
     Peak level 100.0 %
     Extraction speed 2.6 X
     Track quality 100.0 %
     Test CRC 2E00BB84
     Copy CRC 2E00BB84
     Track not present in AccurateRip database
     Copy OK
Track  3
     Filename F:\2004.Thad Jones & Mel Lewis - Central Park North\03. Jive Samba.wav
     Peak level 100.0 %
     Extraction speed 3.1 X
     Track quality 100.0 %
     Test CRC 43985899
     Copy CRC 43985899
     Track not present in AccurateRip database
     Copy OK
Track  4
     Filename F:\2004.Thad Jones & Mel Lewis - Central Park North\04. The Groove Merchant.wav
     Peak level 98.8 %
     Extraction speed 3.3 X
     Track quality 100.0 %
     Test CRC 8A7C602E
     Copy CRC 8A7C602E
     Track not present in AccurateRip database
     Copy OK
Track  5
     Filename F:\2004.Thad Jones & Mel Lewis - Central Park North\05. Big Dipper.wav
     Peak level 98.8 %
     Extraction speed 3.6 X
     Track quality 100.0 %
     Test CRC E58003B4
     Copy CRC E58003B4
     Track not present in AccurateRip database
     Copy OK
Track  6
     Filename F:\2004.Thad Jones & Mel Lewis - Central Park North\06. Central Park North.wav
     Peak level 98.8 %
     Extraction speed 3.7 X
     Track quality 100.0 %
     Test CRC FABB73C0
     Copy CRC FABB73C0
     Track not present in AccurateRip database
     Copy OK
None of the tracks are present in the AccurateRip database
No errors occurred
End of status report
==== Log checksum 4C74CD9513D178637BE73E0E9430B684F72EDAFDE7B02EEF1FAA801AA1080097 ====
 
 
Содержание индексной карты (.CUE)
 
 
Central Park North.cue
REM GENRE Jazz
REM DATE 2004
REM DISCID 53115607
REM COMMENT "ExactAudioCopy v1.0b3"
PERFORMER "Thad Jones & Mel Lewis  "
TITLE "Central Park North"
FILE "01. Tow Away Zone.wav" WAVE
  TRACK 01 AUDIO
    TITLE "Tow Away Zone"
    PERFORMER "Thad Jones & Mel Lewis  "
    INDEX 01 00:00:00
FILE "02. Quietude.wav" WAVE
  TRACK 02 AUDIO
    TITLE "Quietude"
    PERFORMER "Thad Jones & Mel Lewis  "
    INDEX 01 00:00:00
FILE "03. Jive Samba.wav" WAVE
  TRACK 03 AUDIO
    TITLE "Jive Samba"
    PERFORMER "Thad Jones & Mel Lewis  "
    INDEX 01 00:00:00
FILE "04. The Groove Merchant.wav" WAVE
  TRACK 04 AUDIO
    TITLE "The Groove Merchant"
    PERFORMER "Thad Jones & Mel Lewis  "
    INDEX 01 00:00:00
FILE "05. Big Dipper.wav" WAVE
  TRACK 05 AUDIO
    TITLE "Big Dipper"
    PERFORMER "Thad Jones & Mel Lewis  "
    INDEX 01 00:00:00
FILE "06. Central Park North.wav" WAVE
  TRACK 06 AUDIO
    TITLE "Central Park North"
    PERFORMER "Thad Jones & Mel Lewis  "
    INDEX 01 00:00:00
 
 
Central Park North (no edit).cue
REM GENRE Jazz
REM DATE 2004
REM DISCID 53115607
REM COMMENT "ExactAudioCopy v1.0b3"
PERFORMER "Thad Jones & Mel Lewis  "
TITLE "Central Park North"
FILE "01. Tow Away Zone.wav" WAVE
  TRACK 01 AUDIO
    TITLE "Tow Away Zone"
    PERFORMER "Thad Jones & Mel Lewis  "
    INDEX 01 00:00:00
FILE "02. Quietude.wav" WAVE
  TRACK 02 AUDIO
    TITLE "Quietude"
    PERFORMER "Thad Jones & Mel Lewis  "
    INDEX 01 00:00:00
FILE "03. Jive Samba.wav" WAVE
  TRACK 03 AUDIO
    TITLE "Jive Samba"
    PERFORMER "Thad Jones & Mel Lewis  "
    INDEX 01 00:00:00
FILE "04. The Groove Merchant.wav" WAVE
  TRACK 04 AUDIO
    TITLE "The Groove Merchant"
    PERFORMER "Thad Jones & Mel Lewis  "
    INDEX 01 00:00:00
FILE "05. Big Dipper.wav" WAVE
  TRACK 05 AUDIO
    TITLE "Big Dipper"
    PERFORMER "Thad Jones & Mel Lewis  "
    INDEX 01 00:00:00
FILE "06. Central Park North.wav" WAVE
  TRACK 06 AUDIO
    TITLE "Central Park North"
    PERFORMER "Thad Jones & Mel Lewis  "
    INDEX 01 00:00:00
  TRACK 07 MODEx/2xxx
    TITLE "i don`t no the title"
    PERFORMER "Thad Jones & Mel Lewis  "
    INDEX 00 09:15:05
 
 
CUETools log
[CUETools log; Date: 07.04.2015 13:55:52; Version: 2.0.9]
CD-Extra data track length 33:33:35.
[CTDB TOCID: xT92WK8JkNEQ6Sgwtib7GVRsq8w-] found.
        [ CTDBID ] Status
        [f56e3a15] (3/6) Has no data track, No match
        [5a62efe8] (1/6) Has no data track, NotFound
        [eb3350d9] (1/6) No match
        [40d81b4f] (1/6) Accurately ripped
[AccurateRip ID: 000ab571-003e59ef-53115607] found.
Track   [ CRC    ] Status
 01     [7f2937d5] (0/7) No match
 02     [b5b9e5db] (0/6) No match
 03     [62904d1a] (0/6) No match
 04     [7e5d621b] (0/6) No match
 05     [90a5a80b] (0/6) No match
 06     [b392e3e3] (0/6) No match
Offsetted by 639:
 01     [e1bfc952] (0/7) No match
 02     [ab47c56d] (1/6) Accurately ripped
 03     [e2588056] (0/6) No match
 04     [9b51eef4] (0/6) No match
 05     [bb9d2d8d] (0/6) No match
 06     [efb5896a] (0/6) No match
Offsetted by 664:
 01     [85db4f9d] (1/7) No match but offset
 02     [913b4b2b] (1/6) Accurately ripped
 03     [946a597a] (1/6) No match but offset
 04     [6dfaf343] (1/6) Accurately ripped
 05     [418066db] (1/6) Accurately ripped
 06     [b79b356f] (1/6) Accurately ripped
Track Peak [ CRC32  ] [W/O NULL] [  LOG   ]
 --  100,0 [8C1F8A7C] [8797C6DE]
 01   96,5 [FA9CA6BB] [8995554F]   CRC32
 02  100,0 [2E00BB84] [FD749556]   CRC32
 03  100,0 [43985899] [2FEE2B10]   CRC32
 04   98,8 [8A7C602E] [3959DDF1]   CRC32
 05   98,8 [E58003B4] [AEC8EE5F]   CRC32
 06   98,8 [FABB73C0] [3EB229E0]   CRC32
 
 
Состав
Personnel: Mel Lewis (drums); Thad Jones (flugelhorn); Sam Leigh Brown, Barry Galbraith, Sam Herman (guitar); Jerome Richardson (piccolo, clarinet, soprano saxophone, alto saxophone); Joe Farrell (clarinet, soprano saxophone, tenor saxophone); Eddie Daniels (clarinet, tenor saxophone); Joe Temperley (bass clarinet, baritone saxophone); Richard Gene Williams , Snooky Young, Daniel Moore, Jimmy Nottingham (trumpet); Eddie Bert, Jimmy Knepper, Benny Powell (trombone); Cliff Heather (bass trombone); Roland Hanna (piano); Richard Davis (electric bass, bass guitar).Recording information: A&R Studios, New York, NY (06/17/1969/06/18/1969).
 
 
Пояснение к изданию
Central Park North.cue - рабочий CUE для записи альбома на CD.
Central Park North (no edit).cue - оригинальный CUE, сгенерированный ЕАС, предназначен только для проверки.
В папке Extra находится мультимедийная часть данного издания.
По всем вопросам пишите личное сообщение пользователю M0p94ok.
20:42
369
Нет комментариев. Ваш будет первым!