Поиск

(Blaxploitation / Funky Soul / Motown) [CD] Willie Hutch - Foxy Brown (1974) - 2014, FLAC (image+.cue), lossless

(Blaxploitation / Funky Soul / Motown) [CD] Willie Hutch - Foxy Brown (1974) - 2014, FLAC (image+.cue), lossless
Треклист:
Willie Hutch / Foxy Brown (1974)
Жанр: Blaxploitation / Funky Soul / Motown
Носитель: CD
Страна-производитель диска (релиза): Japan
Год издания: 2014
Издатель (лейбл): Motown/USM
Номер по каталогу: UICY-76696
Страна исполнителя (группы): USA
Аудиокодек: FLAC (*.flac)
Тип рипа: image+.cue
Битрейт аудио: lossless
Продолжительность: 32:35
Источник (релизер): Од'Родр рип
Наличие сканов в содержимом раздачи: да
Треклист:
01. Chase 02:31
02. Theme Of Foxy Brown 02:24
03. Ouverture Of Foxy Brown 00:58
04. Hospital Prelude Of Love Theme 02:50
05. Give Me Some Of That Good Old Love 03:44
06. Out There 02:44
07. Foxy Lady 04:03
08. You Sure Know How To Love Your Man 03:52
09. Have You Ever Asked Yourself Why (All About Money Game) 03:28
10. Ain't That (Mellow, Mellow) 02:58
11. Whatever You Do (Do It Good) 03:03
 
Лог создания рипа
Exact Audio Copy V1.0 beta 3 from 29. August 2011
Отчёт EAC об извлечении, выполненном 11. апреля 2015, 16:00
Willie Hutch / Foxy Brown
Дисковод: ATAPI iHES108 2 Adapter: 3 ID: 1
Режим чтения : Достоверность
Использование точного потока : Да
Отключение кэша аудио : Да
Использование указателей C2 : Нет
Коррекция смещения при чтении : 6
Способность читать области Lead-in и Lead-out : Нет
Заполнение пропущенных сэмплов тишиной : Да
Удаление блоков с тишиной в начале и конце : Нет
При вычислениях CRC использовались нулевые сэмплы : Да
Интерфейс : Встроенный Win32-интерфейс для Win NT/2000
Выходной формат : Пользовательский кодировщик
Выбранный битрейт : 1024 kBit/s
Качество : Высокий
Добавление ID3-тега : Нет
Утилита сжатия : C:\Program Files\Exact Audio Copy\Flac\flac.exe
Дополнительные параметры : -V -8 -T "Date=%year%" -T "Genre=%genre%" %source%
TOC извлечённого CD
Трек | Старт | Длительность | Начальный сектор | Конечный сектор
---------------------------------------------------------------------
1 | 0:00.00 | 2:30.52 | 0 | 11301
2 | 2:30.52 | 2:24.20 | 11302 | 22121
3 | 4:54.72 | 0:57.38 | 22122 | 26434
4 | 5:52.35 | 2:50.20 | 26435 | 39204
5 | 8:42.55 | 3:43.67 | 39205 | 55996
6 | 12:26.47 | 2:44.00 | 55997 | 68296
7 | 15:10.47 | 4:03.15 | 68297 | 86536
8 | 19:13.62 | 3:51.48 | 86537 | 103909
9 | 23:05.35 | 3:28.05 | 103910 | 119514
10 | 26:33.40 | 2:58.15 | 119515 | 132879
11 | 29:31.55 | 3:03.12 | 132880 | 146616
Характеристики диапазона извлечения и сообщения об ошибках
Выбранный диапазон
Имя файла D:\EAC-FOLDER\Willie Hutch - Foxy Brown\Willie Hutch - Foxy Brown\Willie Hutch - Foxy Brown.wav
Пиковый уровень 96.6 %
Скорость извлечения 7.6 X
Качество диапазона 100.0 %
CRC теста 4DAC36A0
CRC копии 4DAC36A0
Копирование... OK
Ошибок не произошло
AccurateRip: сводка
Трек 1 отсутствует в базе данных
Трек 2 отсутствует в базе данных
Трек 3 отсутствует в базе данных
Трек 4 отсутствует в базе данных
Трек 5 отсутствует в базе данных
Трек 6 отсутствует в базе данных
Трек 7 отсутствует в базе данных
Трек 8 отсутствует в базе данных
Трек 9 отсутствует в базе данных
Трек 10 отсутствует в базе данных
Трек 11 отсутствует в базе данных
Ни одного трека нет в базе AccurateRip
Конец отчёта
==== Контрольная сумма отчёта E8521BCC74E14F220D27032E55D98B70B98254CAC2F42E2450BEDC8497C3F2C9 ====
 
Содержание индексной карты (.CUE)
REM GENRE Funk/Soundtrack
REM DATE 1974
REM DISCID 9607A20B
REM COMMENT "ExactAudioCopy v1.0b3"
CATALOG 0731453064829
PERFORMER "Willie Hutch"
TITLE "Foxy Brown"
FILE "Willie Hutch - Foxy Brown.flac" WAVE
TRACK 01 AUDIO
TITLE "Chase"
PERFORMER "Willie Hutch"
INDEX 01 00:00:00
TRACK 02 AUDIO
TITLE "Theme Of Foxy Brown"
PERFORMER "Willie Hutch"
INDEX 00 02:30:25
INDEX 01 02:30:52
TRACK 03 AUDIO
TITLE "Ouverture Of Foxy Brown"
PERFORMER "Willie Hutch"
INDEX 01 04:54:72
TRACK 04 AUDIO
TITLE "Hospital Prelude Of Love Theme"
PERFORMER "Willie Hutch"
INDEX 01 05:52:35
TRACK 05 AUDIO
TITLE "Give Me Some Of That Good Old Love"
PERFORMER "Willie Hutch"
INDEX 01 08:42:55
TRACK 06 AUDIO
TITLE "Out There"
PERFORMER "Willie Hutch"
INDEX 00 12:24:62
INDEX 01 12:26:47
TRACK 07 AUDIO
TITLE "Foxy Lady"
PERFORMER "Willie Hutch"
INDEX 00 15:07:50
INDEX 01 15:10:47
TRACK 08 AUDIO
TITLE "You Sure Know How To Love Your Man"
PERFORMER "Willie Hutch"
INDEX 00 19:12:67
INDEX 01 19:13:62
TRACK 09 AUDIO
TITLE "Have You Ever Asked Yourself Why (All About Money Game)"
PERFORMER "Willie Hutch"
INDEX 00 23:03:25
INDEX 01 23:05:35
TRACK 10 AUDIO
TITLE "Ain't That (Mellow, Mellow)"
PERFORMER "Willie Hutch"
INDEX 00 26:29:20
INDEX 01 26:33:40
TRACK 11 AUDIO
TITLE "Whatever You Do (Do It Good)"
PERFORMER "Willie Hutch"
INDEX 00 29:31:07
INDEX 01 29:31:55
 
Об альбоме (сборнике)
Willie Hutch is a multi-talented performer who never achieved fame or stardom. Despite some good moments, the sales here failed to meet or exceed the numbers of his previous soundtrack, The Mack. "Chase" borrows heavily from "Shaft," maybe too much. Hutch is full of fire on "The Theme of Foxy Brown," his distinctive tenor wringing the most from each note. "Give Me Some of That Good Old Love" had a foot-tapping groove, tough backing vocals from Maxine Willard, Julia Tillman, and Carol Willis, and all the elements of a hit record. Unfortunately, Motown only released "Foxy Brown" as a single, and nothing else. The vamping "Out There" and "Foxy Lady" are nasty and contagious. "You Sure Know How to Love Your Man" copies a bit of "Love Machine"'s bassline; it's Willie and the girls' most spirited performance, with Hutch showing that Wilson Pickett isn't the only person who can intersperse soulful screams between lyrics. The melodic "Ain't That (Mellow Mellow)" sounds like another single, but Motown wasn't hearing it; they were too busy concentrating on his Love Power LP, which also flopped. (AMG)
Приватный:
Да (DHT отключён)
Размер:
214.53 Мб (224,953,345 байт) » файлов: 8
Участники:
0 раздают, 0 качают (0 участников всего)
Внешние участники:
9 раздают, 3 качают (12 участников всего) [ Обновить ]
Есть вопросы - пишите личное сообщение пользователю M0p94ok.
05:15
65
Нет комментариев. Ваш будет первым!