Поиск

(Bayou Funk, Groove, New Orleans) [CDR] Leo Nocentelli - Rhythm & Rhymes Part 1 (feat. Dr. John, Donald Harrison) - 2009, FLAC (tracks+.cue), lossless

(Bayou Funk, Groove, New Orleans) [CDR] Leo Nocentelli - Rhythm & Rhymes Part 1 (feat. Dr. John, Donald Harrison) - 2009, FLAC (tracks+.cue), lossless
Треклист:
Leo Nocentelli / Rhythm & Rhymes Part 1
Жанр: Bayou Funk, Groove, New Orleans
Носитель: CDR ** Note: This rip is from a commercially released CD-R **
Год издания: 2009
Издатель (лейбл): TLP Records
Аудиокодек: FLAC (*.flac)
Тип рипа: tracks+.cue
Битрейт аудио: lossless
Продолжительность: 00:58:07
Источник (релизер): Javaguy
Наличие сканов в содержимом раздачи: нет
Треклист:
1 Roll On 5:08
2 Like That 5:03
3 Toi 4:45
4 Stay with Me 7:57
5 Say Na Hey 5:43
6 Say Na Hey (Mardi Gras Remix featuring Dr. John with Big Chief Donald Harrison) 5:39
Bonus tracks - instrumentals
7 Roll On 5:07
8 Like That 5:03
9 Stay With Me A While 7:58
10 Say Na Hey (instrumental) 5:39
youtube.com
 
Лог создания рипа
Exact Audio Copy V1.0 beta 3 from 29. August 2011
EAC extraction logfile from 12. January 2015, 22:12
Leo Nocentelli / Rhythm & Rhymes Part 1
Used drive : hp DVDRAM GT31L Adapter: 0 ID: 0
Read mode : Secure
Utilize accurate stream : Yes
Defeat audio cache : Yes
Make use of C2 pointers : No
Read offset correction : 103
Overread into Lead-In and Lead-Out : No
Fill up missing offset samples with silence : Yes
Delete leading and trailing silent blocks : No
Null samples used in CRC calculations : Yes
Used interface : Native Win32 interface for Win NT & 2000
Gap handling : Appended to previous track
Used output format : User Defined Encoder
Selected bitrate : 1024 kBit/s
Quality : High
Add ID3 tag : No
Command line compressor : C:\Program Files (x86)\FLAC\flac.exe
Additional command line options : -8 -V -T "ARTIST=%artist%" -T "TITLE=%title%" -T "ALBUM=%albumtitle%" -T "DATE=%year%" -T "TRACKNUMBER=%tracknr%" -T "GENRE=%genre%" -T "PERFORMER=%albuminterpret%" -T "COMPOSER=%composer%" %haslyrics%--tag-from-file=LYRICS="%lyricsfile%"%haslyrics% -T "ALBUMARTIST=%albumartist%" -T "DISCNUMBER=%cdnumber%" -T "TOTALDISCS=%totalcds%" -T "TOTALTRACKS=%numtracks%" -T "COMMENT=%comment%" %source% -o %dest%
TOC of the extracted CD
Track | Start | Length | Start sector | End sector
---------------------------------------------------------
1 | 0:00.00 | 5:08.36 | 0 | 23135
2 | 5:08.36 | 5:03.20 | 23136 | 45880
3 | 10:11.56 | 4:45.39 | 45881 | 67294
4 | 14:57.20 | 7:57.55 | 67295 | 103124
5 | 22:55.00 | 5:43.43 | 103125 | 128892
6 | 28:38.43 | 5:39.74 | 128893 | 154391
7 | 34:18.42 | 5:07.72 | 154392 | 177488
8 | 39:26.39 | 5:03.44 | 177489 | 200257
9 | 44:30.08 | 7:58.11 | 200258 | 236118
10 | 52:28.19 | 5:39.02 | 236119 | 261545
Track 1
Filename C:\EAC Rips\Leo Nocentelli - Rhythm & Rhymes Part 1 (2009) [FLAC]\01 - Roll On.wav
Pre-gap length 0:00:02.00
Peak level 95.5 %
Extraction speed 1.3 X
Track quality 100.0 %
Test CRC C316DDCC
Copy CRC C316DDCC
Track not present in AccurateRip database
Copy OK
Track 2
Filename C:\EAC Rips\Leo Nocentelli - Rhythm & Rhymes Part 1 (2009) [FLAC]\02 - Like That.wav
Peak level 95.5 %
Extraction speed 1.5 X
Track quality 100.0 %
Test CRC BA5BD557
Copy CRC BA5BD557
Track not present in AccurateRip database
Copy OK
Track 3
Filename C:\EAC Rips\Leo Nocentelli - Rhythm & Rhymes Part 1 (2009) [FLAC]\03 - Toi.wav
Peak level 95.5 %
Extraction speed 1.4 X
Track quality 99.9 %
Test CRC 9AC67724
Copy CRC 9AC67724
Track not present in AccurateRip database
Copy OK
Track 4
Filename C:\EAC Rips\Leo Nocentelli - Rhythm & Rhymes Part 1 (2009) [FLAC]\04 - Stay with Me.wav
Peak level 95.5 %
Extraction speed 1.7 X
Track quality 99.9 %
Test CRC 3B0A58B7
Copy CRC 3B0A58B7
Track not present in AccurateRip database
Copy OK
Track 5
Filename C:\EAC Rips\Leo Nocentelli - Rhythm & Rhymes Part 1 (2009) [FLAC]\05 - Say Na' Hey.wav
Peak level 95.5 %
Extraction speed 1.9 X
Track quality 100.0 %
Test CRC AC4BFBB5
Copy CRC AC4BFBB5
Track not present in AccurateRip database
Copy OK
Track 6
Filename C:\EAC Rips\Leo Nocentelli - Rhythm & Rhymes Part 1 (2009) [FLAC]\06 - Say Na Hey (Mardi Gras Remix featuring Dr. John with Big Chief Donald Harrison).wav
Peak level 95.5 %
Extraction speed 1.3 X
Track quality 99.8 %
Test CRC 271C6363
Copy CRC 271C6363
Track not present in AccurateRip database
Copy OK
Track 7
Filename C:\EAC Rips\Leo Nocentelli - Rhythm & Rhymes Part 1 (2009) [FLAC]\07 - Roll On.wav
Peak level 95.5 %
Extraction speed 2.1 X
Track quality 100.0 %
Test CRC 5984EF34
Copy CRC 5984EF34
Track not present in AccurateRip database
Copy OK
Track 8
Filename C:\EAC Rips\Leo Nocentelli - Rhythm & Rhymes Part 1 (2009) [FLAC]\08 - Like That.wav
Peak level 95.5 %
Extraction speed 2.2 X
Track quality 100.0 %
Test CRC BF2F2FF8
Copy CRC BF2F2FF8
Track not present in AccurateRip database
Copy OK
Track 9
Filename C:\EAC Rips\Leo Nocentelli - Rhythm & Rhymes Part 1 (2009) [FLAC]\09 - Stay With Me A While.wav
Peak level 95.5 %
Extraction speed 2.4 X
Track quality 100.0 %
Test CRC F653C05C
Copy CRC F653C05C
Track not present in AccurateRip database
Copy OK
Track 10
Filename C:\EAC Rips\Leo Nocentelli - Rhythm & Rhymes Part 1 (2009) [FLAC]\10 - Say Na Hey (instrumental).wav
Peak level 95.5 %
Extraction speed 2.4 X
Track quality 100.0 %
Test CRC 2BB91EDA
Copy CRC 2BB91EDA
Track not present in AccurateRip database
Copy OK
None of the tracks are present in the AccurateRip database
No errors occurred
End of status report
---- CUETools DB Plugin V2.1.3
[CTDB TOCID: bdXBSc5ECPg8STod0OsHtMQf7GE-] disk not present in database, Submit result: bdXBSc5ECPg8STod0OsHtMQf7GE- has been uploaded
==== Log checksum BE739CA2285FE03E59250E34A458069B67172A5F2AD654BA4E2C69FAB7061BFB ====
 
Содержание индексной карты (.CUE)
REM GENRE funk
REM DATE 2009
REM DISCID 7B0D9F0A
REM COMMENT "ExactAudioCopy v1.0b3"
FILE "01 - Roll On.wav" WAVE
TRACK 01 AUDIO
INDEX 01 00:00:00
FILE "02 - Like That.wav" WAVE
TRACK 02 AUDIO
INDEX 01 00:00:00
FILE "03 - Toi.wav" WAVE
TRACK 03 AUDIO
INDEX 01 00:00:00
FILE "04 - Stay with Me.wav" WAVE
TRACK 04 AUDIO
INDEX 01 00:00:00
FILE "05 - Say Na' Hey.wav" WAVE
TRACK 05 AUDIO
INDEX 01 00:00:00
FILE "06 - Say Na Hey (Mardi Gras Remix featuring Dr. John with Big Chief Donald Harrison).wav" WAVE
TRACK 06 AUDIO
INDEX 01 00:00:00
FILE "07 - Roll On.wav" WAVE
TRACK 07 AUDIO
INDEX 01 00:00:00
FILE "08 - Like That.wav" WAVE
TRACK 08 AUDIO
INDEX 01 00:00:00
FILE "09 - Stay With Me A While.wav" WAVE
TRACK 09 AUDIO
INDEX 01 00:00:00
FILE "10 - Say Na Hey (instrumental).wav" WAVE
TRACK 10 AUDIO
INDEX 01 00:00:00
 
Об исполнителе (группе)
Приватный:
Нет (DHT включён)
Размер:
391.36 Мб (410,369,764 байт) » файлов: 16
Участники:
0 раздают, 0 качают (0 участников всего)
Внешние участники:
2 раздают, 1 качают (3 участников всего) [ Обновить ]
Есть вопросы - пишите личное сообщение пользователю M0p94ok.
05:15
150
Нет комментариев. Ваш будет первым!