Поиск

(avantgarde, psychedelic, Tzadik New Japan) Otomo Yoshihide / Bill Laswell / Yoshida Tatsuya - Episome - 2006, FLAC (image+.cue), lossless

(avantgarde, psychedelic, Tzadik New Japan) Otomo Yoshihide / Bill Laswell / Yoshida Tatsuya - Episome - 2006, FLAC (image+.cue), lossless
Треклист:
Otomo Yoshihide / Bill Laswell / Yoshida Tatsuya - Episome
Жанр: avantgarde, psychedelic, Tzadik New Japan
Год выпуска диска: 2006
Производитель диска: USA (Tzadik)
Аудио кодек: FLAC
Тип рипа: image+.cue
Битрейт аудио: lossless
Продолжительность: 59.06
Трэклист:
01 Fudge 13:23
02 Layout 14:31
03 Substantiality 7:09
04 Spin 9:44
05 Hedge 14:17
Доп. информация: Bill Laswell: Bass
Yoshida Tatsuya: Drums
Otomo Yoshihide: Guitar, Vocals
 
eac log
Exact Audio Copy V0.99 prebeta 4 from 23. January 2008
Отчёт EAC об извлечении, выполненном 13. сентября 2008, 16:58
Otomo Laswell Yoshida / Episome
Дисковод: Optiarc DVD RW AD-7170A Adapter: 0 ID: 1
Режим чтения : Достоверность
Использование точного потока : Да
Отключение кэша аудио : Да
Использование указателей C2 : Нет
Коррекция смещения при чтении : 48
Способность читать области Lead-in и Lead-out : Нет
Заполнение пропущенных сэмплов тишиной : Да
Удаление блоков с тишиной в начале и конце : Нет
При вычислениях CRC использовались нулевые сэмплы : Да
Интерфейс : Встроенный Win32-интерфейс для Win NT/2000
Выходной формат : Пользовательский кодировщик
Выбранный битрейт : 768 kBit/s
Качество : Высокий
Добавление ID3-тэга : Нет
Утилита сжатия : D:\Program Files\Exact Audio Copy\FLAC\FLAC.EXE
Дополнительные параметры : -6 -V -T "ARTIST=%a" -T "TITLE=%t" -T "ALBUM=%g" -T "DATE=%y" -T "TRACKNUMBER=%n" -T "GENRE=%m" -T "COMMENT=%e" %s -o %d
TOC извлечённого CD
Трек | Старт | Длительность | Начальный сектор | Конечный сектор
---------------------------------------------------------------------
1 | 0:00.00 | 13:23.69 | 0 | 60293
2 | 13:23.69 | 14:31.07 | 60294 | 125625
3 | 27:55.01 | 7:09.00 | 125626 | 157800
4 | 35:04.01 | 9:44.29 | 157801 | 201629
5 | 44:48.30 | 14:17.68 | 201630 | 265972
Характеристики диапазона извлечения и сообщения об ошибках
Выбранный диапазон
Имя файла D:\EAC\Otomo Laswell Yoshida - Episome.wav
Пиковый уровень 97.7 %
Качество диапазона 100.0 %
CRC копии 40476F87
Копирование... OK
Ошибок не произошло
AccurateRip: сводка
Трек 1 нет в базе данных
Трек 2 нет в базе данных
Трек 3 нет в базе данных
Трек 4 нет в базе данных
Трек 5 нет в базе данных
Ни одного трека нет в базе AccurateRip
Конец отчёта
Приватный:
Нет (DHT включён)
Размер:
386.96 Мб (405,760,754 байт) » файлов: 3
Участники:
0 раздают, 0 качают (0 участников всего)
Внешние участники:
2 раздают, 1 качают (3 участников всего) [ Обновить ]
No seeders - write a personal message to user M0p94ok. Нет сидеров - пишите личное сообщение пользователю M0p94ok.
03:29
55
Нет комментариев. Ваш будет первым!