Вы используете незарегистрированную версию компонента "Вкладки"!

Поиск

(Avantgarde) John Zorn Moonchild Trio - Templars - In Sacred Blood - 2012, APE (image+.cue), lossless

(Avantgarde) John Zorn Moonchild Trio - Templars - In Sacred Blood - 2012, APE (image+.cue), lossless
Треклист:
John Zorn Moonchild Trio / Templars - In Sacred Blood
Жанр: Avantgarde
Страна-производитель диска: USA
Год издания: 2012
Издатель (лейбл): Tzadik
Номер по каталогу: # 7398
Страна: USA
Аудиокодек: APE (*.ape)
Тип рипа: image+.cue
Битрейт аудио: lossless
Продолжительность: 43:14
Источник (релизер): Оригинальный диск
Наличие сканов в содержимом раздачи: да
Треклист:
1. Templi Secretum
2. Evocation of Baphomet
3. Murder of the Magicians
4. Prophetic Souls
5. Libera Me
6. A Second Sanctuary
7. Recordatio
8. Secret Ceremony
 
Лог создания рипа
Exact Audio Copy V1.0 beta 3 from 29. August 2011
EAC extraction logfile from 22. June 2012, 23:11
John Zorn Moonchild Trio / Templars: In Sacred Blood
Used drive : SlimtypeDVD A DS8A4S Adapter: 1 ID: 0
Read mode : Secure
Utilize accurate stream : Yes
Defeat audio cache : Yes
Make use of C2 pointers : No
Read offset correction : 6
Overread into Lead-In and Lead-Out : No
Fill up missing offset samples with silence : Yes
Delete leading and trailing silent blocks : No
Null samples used in CRC calculations : Yes
Used interface : Installed external ASPI interface
Used output format : Monkey's Audio Lossless Encoder
Selected bitrate : Fast Lossless Compression
Quality : High
Add ID3 tag : Yes
Command line compressor : C:\Program Files (x86)\Monkey's Audio\MAC.exe
Additional command line options : %source% %dest% -c3000
TOC of the extracted CD
Track | Start | Length | Start sector | End sector
---------------------------------------------------------
1 | 0:00.00 | 5:33.52 | 0 | 25026
2 | 5:33.52 | 5:26.47 | 25027 | 49523
3 | 11:00.24 | 4:14.31 | 49524 | 68604
4 | 15:14.55 | 6:20.40 | 68605 | 97144
5 | 21:35.20 | 3:20.72 | 97145 | 112216
6 | 24:56.17 | 5:06.42 | 112217 | 135208
7 | 30:02.59 | 3:53.49 | 135209 | 152732
8 | 33:56.33 | 9:15.64 | 152733 | 194421
Range status and errors
Selected range
Filename C:\Users\Nik\Music\[Templars_ In Sacred Blood]\John Zorn Moonchild Trio - Templars- In Sacred Blood.wav
Peak level 96.6 %
Extraction speed 2.7 X
Range quality 100.0 %
Test CRC 53A5BEFA
Copy CRC 53A5BEFA
Copy OK
No errors occurred
End of status report
==== Log checksum 2557249F97713130047091B27FB59DC4877137B876F077AE169F137350241D47 ====
 
Содержание индексной карты (.CUE)
EM DISCID 6E0A2008
REM COMMENT "ExactAudioCopy v1.0b3"
PERFORMER "John Zorn Moonchild Trio"
TITLE "Templars: In Sacred Blood"
FILE "John Zorn Moonchild Trio - Templars- In Sacred Blood.ape" WAVE
TRACK 01 AUDIO
TITLE "Templi Secretum"
PERFORMER "John Zorn Moonchild Trio"
INDEX 01 00:00:00
TRACK 02 AUDIO
TITLE "Evocation Of Baphomet"
PERFORMER "John Zorn Moonchild Trio"
INDEX 01 05:33:52
TRACK 03 AUDIO
TITLE "Murder Of The Magicians"
PERFORMER "John Zorn Moonchild Trio"
INDEX 01 11:00:24
TRACK 04 AUDIO
TITLE "Prophetic Souls"
PERFORMER "John Zorn Moonchild Trio"
INDEX 01 15:14:55
TRACK 05 AUDIO
TITLE "Libera Me"
PERFORMER "John Zorn Moonchild Trio"
INDEX 01 21:35:20
TRACK 06 AUDIO
TITLE "Second Sanctuary"
PERFORMER "John Zorn Moonchild Trio"
INDEX 01 24:56:17
TRACK 07 AUDIO
TITLE "Recordatio"
PERFORMER "John Zorn Moonchild Trio"
INDEX 01 30:02:59
TRACK 08 AUDIO
TITLE "Secret Ceremony"
PERFORMER "John Zorn Moonchild Trio"
INDEX 01 33:56:33
 
Лог проверки качества
AUDIOCHECKER v2.0 beta (build 457) - by Dester - opdester@freemail.hu
~~~~~~~~~~~~~~~~~~~~~~~~~~~~~~~~~~
Started at: пятница, 22. 06. 2012. - 23:25.14
1 file found
1 -===- C:\Users\Nik\Music\[Templars_ In Sacred Blood]\John Zorn Moonchild Trio - Templars- In Sacred Blood.ape
Extracted successfully
Conclusion: this track is CDDA with probability 100%
Tempfile successfully deleted.
Finished at: пятница, 22. 06. 2012. - 23:29.11 (operation time: 0:03.57)
 
Состав
Personnel:
Joey Baron: Drums
Trevor Dunn: Bass
John Medeski: Organ
Mike Patton: Voice
Any questions -> support@pro-jazz.com. По всем вопросам пишите -> support@pro-jazz.com
02:00
146
Нет комментариев. Ваш будет первым!