Вы используете незарегистрированную версию компонента "Вкладки"!

Поиск

(Avant-Garde Jazz) David Murray Trio - Sweet Lovely (1979) - 1980, FLAC (image+.cue), lossless

(Avant-Garde Jazz) David Murray Trio - Sweet Lovely (1979) - 1980, FLAC (image+.cue), lossless
Треклист:
David Murray Trio – Sweet Lovely (1979)
Жанр: Avant-Garde Jazz
Год издания: 1980
Издатель (лейбл): Black Saint
Номер по каталогу: BSR 0039
Аудиокодек: FLAC (*.flac)
Тип рипа: image+.cue
Битрейт аудио: lossless
Продолжительность: 38:43
Rip by barin99
Наличие сканов в содержимом раздачи: да
Треклист:
01. Coney Island (9:31)
02. Corazon (8:36)
03. The Hill (12:33)
04. Hope / Scope (8:03)
Personnel:
David Murray - ts
Fred Hopkins - b
Steve McCall - d
 
 
Лог создания рипа
Exact Audio Copy V1.0 beta 1 from 15. November 2010
EAC extraction logfile from 15. June 2012, 18:45
David Murray Trio / Sweet Lovely
Used drive : TSSTcorpDVD+-RW TS-L532B Adapter: 1 ID: 0
Read mode : Secure
Utilize accurate stream : Yes
Defeat audio cache : Yes
Make use of C2 pointers : No
Read offset correction : 704
Overread into Lead-In and Lead-Out : No
Fill up missing offset samples with silence : Yes
Delete leading and trailing silent blocks : No
Null samples used in CRC calculations : Yes
Used interface : Native Win32 interface for Win NT & 2000
Used output format : Internal WAV Routines
Sample format : 44.100 Hz; 16 Bit; Stereo
TOC of the extracted CD
Track | Start | Length | Start sector | End sector
---------------------------------------------------------
1 | 0:00.33 | 9:31.20 | 33 | 42877
2 | 9:31.53 | 8:36.07 | 42878 | 81584
3 | 18:07.60 | 12:33.23 | 81585 | 138082
4 | 30:41.08 | 8:02.50 | 138083 | 174282
Range status and errors
Selected range
Filename C:\Documents and Settings\VB\My Documents\BARIN99\34\David Murray Trio - Sweet Lovely\David Murray Trio - Sweet Lovely.wav
Peak level 86.6 %
Extraction speed 0.5 X
Range quality 99.9 %
Copy CRC B39B4687
Copy OK
No errors occurred
AccurateRip summary
Track 1 accurately ripped (confidence 3) [FF750F9A]
Track 2 accurately ripped (confidence 4) [F93AF2A6]
Track 3 accurately ripped (confidence 4) [1A2FC56D]
Track 4 accurately ripped (confidence 4) [74AE8AE2]
All tracks accurately ripped
End of status report
 
Содержание индексной карты (.CUE)
REM GENRE Jazz
REM DATE 1979
REM DISCID 33091304
REM COMMENT "ExactAudioCopy v1.0b1"
PERFORMER "David Murray Trio"
TITLE "Sweet Lovely"
FILE "David Murray Trio - Sweet Lovely.flac" WAVE
TRACK 01 AUDIO
TITLE "Coney Island"
PERFORMER "David Murray Trio"
INDEX 00 00:00:00
INDEX 01 00:00:33
TRACK 02 AUDIO
TITLE "Corazon"
PERFORMER "David Murray Trio"
INDEX 00 09:28:63
INDEX 01 09:31:53
TRACK 03 AUDIO
TITLE "The Hill"
PERFORMER "David Murray Trio"
INDEX 00 18:04:10
INDEX 01 18:07:60
TRACK 04 AUDIO
TITLE "Hope / Scope"
PERFORMER "David Murray Trio"
INDEX 00 30:39:63
INDEX 01 30:41:08
Any questions -> support@pro-jazz.com. По всем вопросам пишите -> support@pro-jazz.com
01:59
136
Нет комментариев. Ваш будет первым!