Вы используете незарегистрированную версию компонента "Вкладки"!

Поиск

(Avantgarde jazz/Fusion) Collectif Mu — Don Quichotte — 1997; FLAC (image+.cue) lossless

Треклист:
Collectif Mu — Don Quichotte (1997)
Жанр: Contemporary Jazz/Fusion
Страна исполнителя: France
Год выпуска дискa: 1997
Производитель дисков: France (Seventh Records)
Номер по каталогу: A XXIV
Аудио кодек: FLAC
Тип рипа: image+.cue
Битрейт аудио: lossless
Продолжительность: 01:01:46
Наличие сканов в содержимом раздачи: да
Источник: моя коллекция CD
Tracks:
01. Poulet à la Creme [11:25.56]
02. Don Quichotte [08:25.31]
03. Les Affaires [04:38.63]
04. Douz [11:32.09]
05. Archie [07:57.04]
06. Bec de Fer [06:21.16]
07. Subventionnez-Moi [11:07.60]
 
CUE-файл
Код:
REM GENRE "Modern Jazz/Classic Fusion"
REM DATE 1997
REM DISCID 5D0E7A07
REM COMMENT "ExactAudioCopy v0.99pb4"
PERFORMER "COLLECTIF MU"
TITLE "Don Quichotte"
FILE "COLLECTIF MU - 1997 - Don Quichotte.wav" WAVE
  TRACK 01 AUDIO
    TITLE "Poulet a la Creme"
    PERFORMER "COLLECTIF MU"
    INDEX 01 00:00:00
  TRACK 02 AUDIO
    TITLE "Don Quichotte"
    PERFORMER "COLLECTIF MU"
    INDEX 00 11:25:42
    INDEX 01 11:28:22
  TRACK 03 AUDIO
    TITLE "Les Affaires"
    PERFORMER "COLLECTIF MU"
    INDEX 00 19:53:45
    INDEX 01 19:56:00
  TRACK 04 AUDIO
    TITLE "Douz"
    PERFORMER "COLLECTIF MU"
    INDEX 00 24:34:47
    INDEX 01 24:38:10
  TRACK 05 AUDIO
    TITLE "Archie"
    PERFORMER "COLLECTIF MU"
    INDEX 00 36:10:17
    INDEX 01 36:16:02
  TRACK 06 AUDIO
    TITLE "Bec de Fer"
    PERFORMER "COLLECTIF MU"
    INDEX 00 44:13:05
    INDEX 01 44:14:22
  TRACK 07 AUDIO
    TITLE "Subventionnez-Moi"
    PERFORMER "COLLECTIF MU"
    INDEX 00 50:35:34
    INDEX 01 50:38:42
 
Отчёт EAC
Код:
Exact Audio Copy V0.99 prebeta 4 from 23. January 2008
Отчёт EAC об извлечении, выполненном 9. июня 2012, 21:10
COLLECTIF MU / Don Quichotte
Дисковод: TSSTcorpCD/DVDW SH-S183A   Adapter: 4  ID: 1
Режим чтения                 : Достоверность
Использование точного потока : Да
Отключение кэша аудио        : Да
Использование указателей C2  : Нет
Коррекция смещения при чтении                     : 6
Способность читать области Lead-in и Lead-out     : Нет
Заполнение пропущенных сэмплов тишиной            : Да
Удаление блоков с тишиной в начале и конце        : Нет
При вычислениях CRC использовались нулевые сэмплы : Да
Интерфейс                                         : Встроенный Win32-интерфейс для Win NT/2000
Выходной формат : Внутренние WAV-операции
Формат сэмплов  : 44.100 Гц; 16 бит; стерео
TOC извлечённого CD
     Трек |   Старт  | Длительность | Начальный сектор | Конечный сектор
    ---------------------------------------------------------------------
       1  |  0:00.00 |   11:28.22   |           0      |      51621
       2  | 11:28.22 |    8:27.53   |       51622      |      89699
       3  | 19:56.00 |    4:42.10   |       89700      |     110859
       4  | 24:38.10 |   11:37.67   |      110860      |     163201
       5  | 36:16.02 |    7:58.20   |      163202      |     199071
       6  | 44:14.22 |    6:24.20   |      199072      |     227891
       7  | 50:38.42 |   11:07.45   |      227892      |     277961
Характеристики диапазона извлечения и сообщения об ошибках
Выбранный диапазон
     Имя файла D:\TEMP\COLLECTIF MU - 1997 - Don Quichotte.wav
     Пиковый уровень 100.0 %
     Качество диапазона 99.9 %
     CRC теста A62AFEC9
     CRC копии A62AFEC9
     Копирование... OK
Ошибок не произошло
AccurateRip: сводка
Трек  1  точное извлечение (доверие 1)  [E79A351C]
Трек  2  точное извлечение (доверие 1)  [ADBBBA32]
Трек  3  точное извлечение (доверие 1)  [88431CBF]
Трек  4  точное извлечение (доверие 1)  [4017AABB]
Трек  5  точное извлечение (доверие 1)  [F0610DCF]
Трек  6  точное извлечение (доверие 1)  [6FAAC7CE]
Трек  7  точное извлечение (доверие 1)  [CAC1AE31]
Все треки извлечены точно
Конец отчёта

Краткая информацияОчень краткую информацию на французском можно найти на сайте, знакомом всем, кто любит Magma.
Line-up:
Eric Prost — tenor saxophone
Gaël Horellou — alto saxophone
David Sauzay — tenor & soprano saxophones, flute
Emmanuel Borghi — piano
Jean-Loup Bonneton — guitar
Fabien Marcos — double bass
François Gallix — double bass
Laurent Sarrien — drums
Philippe Garcia — drums, percussionЭто коллектиФ из послужного списка всем знакомого Эммануэля Борги (Magma, One Shot...), выпустивший этот единственный студийник, записанный в 1997 году в известной всем любителям зеула легендарной студии UZ Studio. И все знают, что Эммануэль — это знак качества. Не zeuhl, не прогрессив и даже не джаз-рок, а чистый джаз. Стиль написал джаз/фьюжн; к сожалению, в джазовых стилях не разбираюсь. Но очень рекомендую...


Скорость отдачи — 768Кбит/с (реально 72–80Кбайт/с).
Жду появления как минимум трёх сидов (кроме себя).
Пожалуйста, быстро не уходите с раздачи!

Всем желаю успешного скачивания и приятного прослушивания!
Any questions -> support@pro-jazz.com. По всем вопросам пишите -> support@pro-jazz.com
10:27
234
Нет комментариев. Ваш будет первым!