Поиск

(avant-klezmer) Kruzenshtern & Parohod - "Songs" & "The Craft Of Primitive Klezmer" - 2003, 2004, FLAC (image+.cue), lossless

(avant-klezmer) Kruzenshtern & Parohod - "Songs" & "The Craft Of Primitive Klezmer" - 2003, 2004, FLAC (image+.cue), lossless
Kruzenshtern & Parohod - "Songs" & "The Craft Of Primitive Klezmer"
Жанр: avant-klezmer
Год выпуска диска: 2003, 2004
Производитель диска: Israel (Auris Media)
Аудио кодек: FLAC
Тип рипа: image+.cue
Битрейт аудио: lossless
Продолжительность: 60.28 + 54.22
Трэклист:
"Songs" (2004) :
1 Boker
2 Joy
3 Shtelt
4 Tzohoraim
5 Mehalalot
6 Young Ones
7 Erev
8 Portrait of a Sitting Man in a Hat
9 Kolbasa
10 Laila
11 Sippurim (To Leonid Soybelman)
12 Shmock on The Water
13 Boker
"The Craft Of Primitive Klezmer" (2003) :
1. Mishegene Parovoz
2. Focus Pocus
3. Danglers Song
4. Semitic Tango
5. Dancing
6. March
7. Cul-De-Sac
8. Vontzn In The Box
9. Sippurim
10. Tort
Доп. информация:
 
eac log for =Songs=
Exact Audio Copy V0.99 prebeta 4 from 23. January 2008
Отчёт EAC об извлечении, выполненном 11. октября 2008, 0:28
Kruzenshtern & Parohod / Songs
Дисковод: Optiarc DVD RW AD-7170A Adapter: 0 ID: 1
Режим чтения : Достоверность
Использование точного потока : Да
Отключение кэша аудио : Да
Использование указателей C2 : Нет
Коррекция смещения при чтении : 48
Способность читать области Lead-in и Lead-out : Нет
Заполнение пропущенных сэмплов тишиной : Да
Удаление блоков с тишиной в начале и конце : Нет
При вычислениях CRC использовались нулевые сэмплы : Да
Интерфейс : Встроенный Win32-интерфейс для Win NT/2000
Выходной формат : Пользовательский кодировщик
Выбранный битрейт : 768 kBit/s
Качество : Высокий
Добавление ID3-тэга : Нет
Утилита сжатия : D:\Program Files\Exact Audio Copy\FLAC\FLAC.EXE
Дополнительные параметры : -6 -V -T "ARTIST=%a" -T "TITLE=%t" -T "ALBUM=%g" -T "DATE=%y" -T "TRACKNUMBER=%n" -T "GENRE=%m" -T "COMMENT=%e" %s -o %d
TOC извлечённого CD
Трек | Старт | Длительность | Начальный сектор | Конечный сектор
---------------------------------------------------------------------
1 | 0:00.00 | 1:51.26 | 0 | 8350
2 | 1:51.26 | 7:29.54 | 8351 | 42079
3 | 9:21.05 | 2:31.10 | 42080 | 53414
4 | 11:52.15 | 1:05.27 | 53415 | 58316
5 | 12:57.42 | 3:22.59 | 58317 | 73525
6 | 16:20.26 | 8:19.12 | 73526 | 110962
7 | 24:39.38 | 1:50.15 | 110963 | 119227
8 | 26:29.53 | 5:31.37 | 119228 | 144089
9 | 32:01.15 | 5:46.71 | 144090 | 170110
10 | 37:48.11 | 2:17.56 | 170111 | 180441
11 | 40:05.67 | 8:39.00 | 180442 | 219366
12 | 48:44.67 | 6:34.60 | 219367 | 248976
13 | 55:19.52 | 5:08.47 | 248977 | 272123
Характеристики диапазона извлечения и сообщения об ошибках
Выбранный диапазон
Имя файла D:\EAC\Kruzenshtern & Parohod - Songs.wav
Пиковый уровень 100.0 %
Качество диапазона 99.9 %
CRC копии 442388ED
Копирование... OK
Ошибок не произошло
AccurateRip: сводка
Трек 1 нет в базе данных
Трек 2 нет в базе данных
Трек 3 нет в базе данных
Трек 4 нет в базе данных
Трек 5 нет в базе данных
Трек 6 нет в базе данных
Трек 7 нет в базе данных
Трек 8 нет в базе данных
Трек 9 нет в базе данных
Трек 10 нет в базе данных
Трек 11 нет в базе данных
Трек 12 нет в базе данных
Трек 13 нет в базе данных
Ни одного трека нет в базе AccurateRip
Конец отчёта
 
eac log for =The Craft Of Primitive Klezmer=
Exact Audio Copy V0.99 prebeta 4 from 23. January 2008
Отчёт EAC об извлечении, выполненном 10. октября 2008, 23:48
Kruzneshtern & Parohod / The Craft Of Primitive Klezmer
Дисковод: Optiarc DVD RW AD-7170A Adapter: 0 ID: 1
Режим чтения : Достоверность
Использование точного потока : Да
Отключение кэша аудио : Да
Использование указателей C2 : Нет
Коррекция смещения при чтении : 48
Способность читать области Lead-in и Lead-out : Нет
Заполнение пропущенных сэмплов тишиной : Да
Удаление блоков с тишиной в начале и конце : Нет
При вычислениях CRC использовались нулевые сэмплы : Да
Интерфейс : Встроенный Win32-интерфейс для Win NT/2000
Выходной формат : Пользовательский кодировщик
Выбранный битрейт : 768 kBit/s
Качество : Высокий
Добавление ID3-тэга : Нет
Утилита сжатия : D:\Program Files\Exact Audio Copy\FLAC\FLAC.EXE
Дополнительные параметры : -6 -V -T "ARTIST=%a" -T "TITLE=%t" -T "ALBUM=%g" -T "DATE=%y" -T "TRACKNUMBER=%n" -T "GENRE=%m" -T "COMMENT=%e" %s -o %d
TOC извлечённого CD
Трек | Старт | Длительность | Начальный сектор | Конечный сектор
---------------------------------------------------------------------
1 | 0:00.00 | 1:33.18 | 0 | 6992
2 | 1:33.18 | 8:40.00 | 6993 | 45992
3 | 10:13.18 | 5:40.36 | 45993 | 71528
4 | 15:53.54 | 5:17.44 | 71529 | 95347
5 | 21:11.23 | 4:55.47 | 95348 | 117519
6 | 26:06.70 | 5:12.64 | 117520 | 140983
7 | 31:19.59 | 6:39.02 | 140984 | 170910
8 | 37:58.61 | 3:09.53 | 170911 | 185138
9 | 41:08.39 | 9:50.54 | 185139 | 229442
10 | 50:59.18 | 3:22.73 | 229443 | 244665
Характеристики диапазона извлечения и сообщения об ошибках
Выбранный диапазон
Имя файла D:\EAC\Kruzneshtern & Parohod - The Craft Of Primitive Klezmer.wav
Пиковый уровень 100.0 %
Качество диапазона 99.9 %
CRC копии 873525C7
Копирование... OK
Ошибок не произошло
AccurateRip: сводка
Трек 1 нет в базе данных
Трек 2 нет в базе данных
Трек 3 нет в базе данных
Трек 4 нет в базе данных
Трек 5 нет в базе данных
Трек 6 нет в базе данных
Трек 7 нет в базе данных
Трек 8 нет в базе данных
Трек 9 нет в базе данных
Трек 10 нет в базе данных
Ни одного трека нет в базе AccurateRip
Конец отчёта
03:57
298
Нет комментариев. Ваш будет первым!