Вы используете незарегистрированную версию компонента "Вкладки"!

Поиск

(avant-jazz/modern creative) L`Orkestre des Pas Perdus - T`auras pas ta pomme - 1996, FLAC (image+.cue), lossless

Треклист:
L`Orkestre des Pas Perdus - T`auras pas ta pomme
Жанр: avant-jazz/modern creative
Год выпуска диска: 1996
Производитель диска: DAME/Canada
Аудио кодек: FLAC
Тип рипа: image+.cue
Битрейт аудио: lossless
Трэклист:
1. Tasse de the
2. Demenagement
3. Poisson rodge
4. H2SO4
5. Vestibule
6. Vert de gris
7. En fer et en os
8. La salle des pas perdus
9. La marche a Marie B.
10. Zut
11. Jemale trop tard
12. Acide cirque
Доп. информация:
Ivannoe Jolicoeur: Trompette, flugelhorn
Remi Leclers: Batterie
Jean-Denis Levasseur: Sax alto, picollo
Paul Richer: Sax tenor
Jean Sabourin: Sousaphone
Claude St-Jean: trombone
Собственный рип
Отчет ЕАС
 
скрытый текст
Exact Audio Copy V0.99 prebeta 5 from 4. May 2009
Отчёт EAC об извлечении, выполненном 13. июня 2010, 23:14
L'Orkestre des Pas Perdus / T'auras pas ta pomme
Дисковод: PIONEER DVD-RW DVR-111D Adapter: 1 ID: 0
Режим чтения : Достоверность
Использование точного потока : Да
Отключение кэша аудио : Да
Использование указателей C2 : Нет
Коррекция смещения при чтении : 48
Способность читать области Lead-in и Lead-out : Нет
Заполнение пропущенных сэмплов тишиной : Да
Удаление блоков с тишиной в начале и конце : Нет
При вычислениях CRC использовались нулевые сэмплы : Нет
Интерфейс : Встроенный Win32-интерфейс для Win NT/2000
Выходной формат : Пользовательский кодировщик
Выбранный битрейт : 768 kBit/s
Качество : Высокий
Добавление ID3-тэга : Нет
Утилита сжатия : C:\Program Files\Exact Audio Copy\FLAC\FLAC.EXE
Дополнительные параметры : -6 -V -T "ARTIST=%a" -T "TITLE=%t" -T "ALBUM=%g" -T "DATE=%y" -T "TRACKNUMBER=%n" -T "GENRE=%m" -T "COMMENT=%e" %s -o %d
TOC извлечённого CD
Трек | Старт | Длительность | Начальный сектор | Конечный сектор
---------------------------------------------------------------------
1 | 0:00.00 | 3:39.57 | 0 | 16481
2 | 3:39.57 | 6:01.40 | 16482 | 43596
3 | 9:41.22 | 3:37.40 | 43597 | 59911
4 | 13:18.62 | 4:50.63 | 59912 | 81724
5 | 18:09.50 | 5:02.12 | 81725 | 104386
6 | 23:11.62 | 3:38.23 | 104387 | 120759
7 | 26:50.10 | 4:16.07 | 120760 | 139966
8 | 31:06.17 | 5:32.25 | 139967 | 164891
9 | 36:38.42 | 2:39.53 | 164892 | 176869
10 | 39:18.20 | 4:56.55 | 176870 | 199124
11 | 44:15.00 | 4:33.27 | 199125 | 219626
12 | 48:48.27 | 4:24.73 | 219627 | 239499
Характеристики диапазона извлечения и сообщения об ошибках
Выбранный диапазон
Имя файла C:\Documents and Settings\S\Мои документы\Torrent раздача\L'Orkestre des Pas Perdus - T'auras pas ta pomme.wav
Пиковый уровень 100.0 %
Качество диапазона 100.0 %
CRC копии B7882124
Копирование... OK
Ошибок не произошло
AccurateRip: сводка
Трек 1 нет в базе данных
Трек 2 нет в базе данных
Трек 3 нет в базе данных
Трек 4 нет в базе данных
Трек 5 нет в базе данных
Трек 6 нет в базе данных
Трек 7 нет в базе данных
Трек 8 нет в базе данных
Трек 9 нет в базе данных
Трек 10 нет в базе данных
Трек 11 нет в базе данных
Трек 12 нет в базе данных
Ни одного трека нет в базе AccurateRip
Конец отчёта
CUE
 
скрытый текст
REM GENRE Jazz
REM DISCID 8C0C790C
REM COMMENT "ExactAudioCopy v0.99pb5"
PERFORMER "L'Orkestre des Pas Perdus"
TITLE "T'auras pas ta pomme"
FILE "L'Orkestre des Pas Perdus - T'auras pas ta pomme.flac" WAVE
TRACK 01 AUDIO
TITLE "Tasse de thй"
PERFORMER "L'Orkestre des Pas Perdus"
FLAGS DCP
INDEX 01 00:00:00
TRACK 02 AUDIO
TITLE "Dйmйnagement"
PERFORMER "L'Orkestre des Pas Perdus"
FLAGS DCP
INDEX 00 03:38:15
INDEX 01 03:39:57
TRACK 03 AUDIO
TITLE "Poisson rouge"
PERFORMER "L'Orkestre des Pas Perdus"
FLAGS DCP
INDEX 00 09:39:55
INDEX 01 09:41:22
TRACK 04 AUDIO
TITLE "H2SO4"
PERFORMER "L'Orkestre des Pas Perdus"
FLAGS DCP
INDEX 00 13:17:20
INDEX 01 13:18:62
TRACK 05 AUDIO
TITLE "Vestibule"
PERFORMER "L'Orkestre des Pas Perdus"
FLAGS DCP
INDEX 00 18:08:07
INDEX 01 18:09:50
TRACK 06 AUDIO
TITLE "Vert de gris"
PERFORMER "L'Orkestre des Pas Perdus"
FLAGS DCP
INDEX 00 23:10:20
INDEX 01 23:11:62
TRACK 07 AUDIO
TITLE "En fer et en os"
PERFORMER "L'Orkestre des Pas Perdus"
FLAGS DCP
INDEX 00 26:48:42
INDEX 01 26:50:10
TRACK 08 AUDIO
TITLE "La salle des pas perdus"
PERFORMER "L'Orkestre des Pas Perdus"
FLAGS DCP
INDEX 01 31:06:17
TRACK 09 AUDIO
TITLE "La marche а Marie B."
PERFORMER "L'Orkestre des Pas Perdus"
FLAGS DCP
INDEX 00 36:36:72
INDEX 01 36:38:42
TRACK 10 AUDIO
TITLE "Zut"
PERFORMER "L'Orkestre des Pas Perdus"
FLAGS DCP
INDEX 00 39:16:52
INDEX 01 39:18:20
TRACK 11 AUDIO
TITLE "Jamais trop tard"
PERFORMER "L'Orkestre des Pas Perdus"
FLAGS DCP
INDEX 00 44:13:32
INDEX 01 44:15:00
TRACK 12 AUDIO
TITLE "Acide cirque"
PERFORMER "L'Orkestre des Pas Perdus"
FLAGS DCP
INDEX 00 48:46:60
INDEX 01 48:48:27
Any questions -> support@pro-jazz.com. По всем вопросам пишите -> support@pro-jazz.com
00:27
173
Нет комментариев. Ваш будет первым!