Вы используете незарегистрированную версию компонента "Вкладки"!

Поиск

(avant-jazz/modern creative) L`Orkestre Des Pas Perdus – Mondo Cuivro - 2003, FLAC (image+.cue), lossless

Треклист:
L`Orkestre Des Pas Perdus – Mondo Cuivro
Жанр: avant-jazz/modern creative
Год выпуска диска: 2003
Производитель диска: Socan/Sodrac/Canada
Аудио кодек: FLAC
Тип рипа: image+.cue
Битрейт аудио: lossless
Трэклист:
1. Brass kamarades
2. Sambabasam
3. Equerre d`artichaut
4. Arbracamentete
5. Tapis dans l`ombre
6. Skagogo
7. L`epie dans les plats
8. Mondo cuivro
9. Trapezi
10. Ceci e 1 message enr.
11. Yeu!
12. Ou allons-nous?
Доп. информация:
Claude St-Jean – trombone
Maxime St-Pierre – trompette
Jean-Denis Levasseur – saxophone alto
Roberto Murray – saxophone tenor
Jean Sabourin – sousaphone
Remi Leclerc - batterie
Собственный рип
ОтчетЕАС
 
скрытый текст
Exact Audio Copy V0.99 prebeta 5 from 4. May 2009
Отчёт EAC об извлечении, выполненном 13. июня 2010, 17:19
L'orkestre des pas perdus / Mondo cuivro
Дисковод: PIONEER DVD-RW DVR-111D Adapter: 1 ID: 0
Режим чтения : Достоверность
Использование точного потока : Да
Отключение кэша аудио : Да
Использование указателей C2 : Нет
Коррекция смещения при чтении : 48
Способность читать области Lead-in и Lead-out : Нет
Заполнение пропущенных сэмплов тишиной : Да
Удаление блоков с тишиной в начале и конце : Нет
При вычислениях CRC использовались нулевые сэмплы : Нет
Интерфейс : Встроенный Win32-интерфейс для Win NT/2000
Выходной формат : Пользовательский кодировщик
Выбранный битрейт : 768 kBit/s
Качество : Высокий
Добавление ID3-тэга : Нет
Утилита сжатия : C:\Program Files\Exact Audio Copy\FLAC\FLAC.EXE
Дополнительные параметры : -6 -V -T "ARTIST=%a" -T "TITLE=%t" -T "ALBUM=%g" -T "DATE=%y" -T "TRACKNUMBER=%n" -T "GENRE=%m" -T "COMMENT=%e" %s -o %d
TOC извлечённого CD
Трек | Старт | Длительность | Начальный сектор | Конечный сектор
---------------------------------------------------------------------
1 | 0:00.00 | 3:42.55 | 0 | 16704
2 | 3:42.55 | 4:01.07 | 16705 | 34786
3 | 7:43.62 | 4:02.02 | 34787 | 52938
4 | 11:45.64 | 4:38.08 | 52939 | 73796
5 | 16:23.72 | 5:12.19 | 73797 | 97215
6 | 21:36.16 | 4:01.70 | 97216 | 115360
7 | 25:38.11 | 4:19.71 | 115361 | 134856
8 | 29:58.07 | 3:27.52 | 134857 | 150433
9 | 33:25.59 | 5:29.25 | 150434 | 175133
10 | 38:55.09 | 4:11.52 | 175134 | 194010
11 | 43:06.61 | 4:00.30 | 194011 | 212040
12 | 47:07.16 | 3:36.59 | 212041 | 228299
Характеристики диапазона извлечения и сообщения об ошибках
Выбранный диапазон
Имя файла C:\Documents and Settings\S\Мои документы\Torrent раздача\L'orkestre des pas perdus - Mondo cuivro.wav
Пиковый уровень 100.0 %
Качество диапазона 100.0 %
CRC копии EF23A3A7
Копирование... OK
Ошибок не произошло
AccurateRip: сводка
Трек 1 точное извлечение (доверие 2) [2EEA02A4]
Трек 2 точное извлечение (доверие 2) [AFCFF60A]
Трек 3 точное извлечение (доверие 2) [1FE5A753]
Трек 4 точное извлечение (доверие 2) [F9F808F6]
Трек 5 точное извлечение (доверие 2) [90B50F58]
Трек 6 точное извлечение (доверие 2) [88D17C38]
Трек 7 точное извлечение (доверие 2) [92F32A06]
Трек 8 точное извлечение (доверие 2) [B2CBD067]
Трек 9 точное извлечение (доверие 2) [ECC58845]
Трек 10 точное извлечение (доверие 2) [EB3820D7]
Трек 11 точное извлечение (доверие 2) [A802164A]
Трек 12 точное извлечение (доверие 2) [700DF4E0]
Все треки извлечены точно
Конец отчёта
CUE
 
скрытый текст
REM GENRE Jazz
REM DATE 2003
REM DISCID A80BE40C
REM COMMENT "ExactAudioCopy v0.99pb5"
PERFORMER "L'orkestre des pas perdus"
TITLE "Mondo cuivro"
FILE "L'orkestre des pas perdus - Mondo cuivro.flac" WAVE
TRACK 01 AUDIO
TITLE "Brass kamarades"
PERFORMER "L'orkestre des pas perdus"
INDEX 01 00:00:00
TRACK 02 AUDIO
TITLE "Sambabasam"
PERFORMER "L'orkestre des pas perdus"
INDEX 01 03:42:55
TRACK 03 AUDIO
TITLE "Йquerre d'artichaut"
PERFORMER "L'orkestre des pas perdus"
INDEX 01 07:43:62
TRACK 04 AUDIO
TITLE "Arbracamentкte"
PERFORMER "L'orkestre des pas perdus"
INDEX 01 11:45:64
TRACK 05 AUDIO
TITLE "Tapis dans l'ombre"
PERFORMER "L'orkestre des pas perdus"
INDEX 01 16:23:72
TRACK 06 AUDIO
TITLE "Skagogo"
PERFORMER "L'orkestre des pas perdus"
INDEX 01 21:36:16
TRACK 07 AUDIO
TITLE "L'йpiй dans les plats"
PERFORMER "L'orkestre des pas perdus"
INDEX 01 25:38:11
TRACK 08 AUDIO
TITLE "Mondo cuivro"
PERFORMER "L'orkestre des pas perdus"
INDEX 01 29:58:07
TRACK 09 AUDIO
TITLE "Trapezi"
PERFORMER "L'orkestre des pas perdus"
INDEX 01 33:25:59
TRACK 10 AUDIO
TITLE "Ceci й 1 message enregistrй"
PERFORMER "L'orkestre des pas perdus"
INDEX 01 38:55:09
TRACK 11 AUDIO
TITLE "Yй!"
PERFORMER "L'orkestre des pas perdus"
INDEX 01 43:06:61
TRACK 12 AUDIO
TITLE "Oщ allons-nous?"
PERFORMER "L'orkestre des pas perdus"
INDEX 01 47:07:16
Другие раздачи
http://rutracker.org/forum/search.php?uid=17163016
Any questions -> support@pro-jazz.com. По всем вопросам пишите -> support@pro-jazz.com
23:53
165
Нет комментариев. Ваш будет первым!